<?xml version="1.0" standalone="no"?>
<!DOCTYPE svg PUBLIC "-//W3C//DTD SVG 1.1//EN" "http://www.w3.org/Graphics/SVG/1.1/DTD/svg11.dtd" >
<svg>
<metadata>
Created by FontForge 20090622 at Thu May 12 20:50:17 2016
 By deploy user
Copyright (c) 2016 by moriztype. All rights reserved.
</metadata>
<defs>
<font id="Willshering" horiz-adv-x="234" >
  <font-face 
    font-family="Willshering"
    font-weight="400"
    font-stretch="normal"
    units-per-em="1000"
    panose-1="2 0 5 6 2 0 0 2 0 2"
    ascent="800"
    descent="-200"
    x-height="333.5"
    cap-height="697"
    bbox="-1204.5 -364 1408.38 1138"
    underline-thickness="50"
    underline-position="-50"
    unicode-range="U+0008-U+FB02"
  />
<missing-glyph horiz-adv-x="232" 
 />
    <glyph glyph-name="a_a" unicode="aa" horiz-adv-x="614" 
d="M505 80q45 40 115 200q3 8 9 20h10q-1 -2 -16.5 -36.5l-24.5 -53l-25 -49.5t-31.5 -53t-30.5 -35q-29 -25 -62 -8q-13 7 -20 20t-7 29t1.5 31.5t8 34l10.5 30.5t10 26t7 15q-48 -54 -84.5 -66.5t-53 6t-16.5 52.5q-60 -121 -100 -157q-29 -25 -62 -8q-13 7 -20 20t-7 29
t1.5 31.5t8 34l10.5 30.5t10 26t7 15q-81 -91 -127 -67q-31 17 -26 70q5 61 52 93q30 21 69 19q53 -2 32 -79q-3 -13 -8.5 -13t-3.5 15q1 4 3 15t2.5 17t-0.5 14t-5.5 12t-12.5 5q-39 1 -62 -56q-21 -51 -7 -81q6 -13 18 -12q19 1 48.5 31.5t42.5 50.5q6 10 21 -20
q5 -10 5 -14q-1 -11 -12.5 -37.5l-22 -50t-16 -50.5t6.5 -39q18 -23 49 6q47 41 109 177q8 41 39 69t80 27q53 -2 32 -79q-3 -13 -8.5 -13t-3.5 15q1 4 3 15t2.5 17t-0.5 14t-5.5 12t-12.5 5q-39 1 -62 -56q-21 -51 -7 -81q6 -13 18 -12q19 1 48.5 31.5t42.5 50.5
q6 10 21 -20q5 -10 5 -14q-1 -11 -12.5 -37.5l-22 -50t-16 -50.5t6.5 -39q18 -23 49 6z" />
    <glyph glyph-name="b_b" unicode="bb" horiz-adv-x="568" 
d="M317 247q3 -26 18 -6q5 6 15 21q40 60 66 69q16 5 32 -4q38 -26 31.5 -75.5t-42.5 -88.5q40 -6 88 33q46 43 62 104h10q-16 -67 -66 -110q-53 -46 -101 -35q-13 -11 -32 -18.5t-38 -9.5t-34 7t-18 30q-3 15 6.5 27.5t23.5 16.5q30 9 59 -23q18 25 29 53t7.5 50.5
t-25.5 25.5q-7 1 -25 -20.5t-33 -43.5l-15 -23q-18 -15 -29 -2q-18 -54 -59 -88q-53 -46 -101 -35q-13 -11 -32 -18.5t-38 -9.5t-34 7t-18 30q-3 15 6.5 27.5t23.5 16.5q30 9 59 -23q18 25 29 53t7.5 50.5t-25.5 25.5q-7 1 -25 -20.5t-33 -44.5l-15 -22q-28 -25 -39 28
q-12 67 5 163.5t66.5 181.5t117.5 101q42 8 59 -14q15 -18 12 -58q-4 -35 -25 -83q-31 -66 -85 -125.5t-119 -89.5q-8 -42 -10 -84q3 -26 18 -6q5 6 15 21q40 60 66 69q16 5 32 -4q38 -26 31.5 -75.5t-42.5 -88.5q40 -6 88 33q43 40 59 94q-2 6 -4 18q-12 67 5 163.5
t66.5 181.5t117.5 101q42 8 59 -14q15 -18 12 -58q-4 -35 -25 -83q-31 -66 -85 -125.5t-119 -89.5q-8 -42 -10 -84zM485 679q-49 -47 -92.5 -143t-63.5 -194q62 30 113 87t81 121q19 43 24 80q3 36 -10 52q-12 11 -26 9t-26 -12zM201 626q-49 -47 -92.5 -143t-63.5 -194
q62 30 113 87t81 121q19 43 24 80q3 36 -10 52q-12 11 -26 9t-26 -12zM391 178q-26 29 -51 21q-28 -9 -23 -34q6 -22 22.5 -19t29.5 12t22 20zM107 125q-26 29 -51 21q-28 -9 -23 -34q6 -22 22.5 -19t29.5 12t22 20z" />
    <glyph glyph-name="c_c" unicode="cc" horiz-adv-x="441" 
d="M229 89q-37 21 -42 71.5t15 97.5q-72 -94 -126 -126q-13 -8 -30 -9.5t-28 4.5q-30 17 -36 56.5t7.5 78.5t39.5 69.5t55 32.5q59 4 33 -96q-2 -13 -6.5 -12t-1.5 15q3 16 4.5 26.5t2 25.5t-5.5 20t-19 0q-23 -9 -53 -101t-12 -106q17 -13 44 0q31 15 80 69.5t71 92.5
q40 68 86 71q21 1 32.5 -7.5t15.5 -33.5t-9 -72q-3 -13 -7 -14q-2 -1 -3 3t1 14q4 17 5.5 31t1.5 31.5t-8 25t-23 2.5q-17 -8 -44 -64.5t-38.5 -109t5.5 -74.5q22 -16 54 -1q37 18 86.5 81.5t82.5 118.5h10l-39.5 -59l-38.5 -53t-49 -57.5t-45 -35.5q-14 -9 -34.5 -11
t-33.5 5z" />
    <glyph glyph-name="d_d" unicode="dd" horiz-adv-x="662" 
d="M341 144q12 -9 26 -9t25 5t25.5 18.5t23.5 23.5t23 27q1 -13 4.5 -29t9 -36.5t14.5 -36t20.5 -26t27.5 -9t34 17.5q29 26 59 78.5t47 92t15 39.5h-10l-7 -16q-6 -15 -17 -40t-25 -51.5t-32.5 -53.5t-36.5 -42q-46 -43 -59 43q-9 59 -1 117q49 36 93 95.5t73 125.5
q30 66 36 118q6 40 -10 70t-57 15q-66 -24 -115 -137t-61 -241q-14 20 -41 25q-38 6 -76 -32t-41 -83q-32 -58 -62 -83q-46 -43 -59 43q-9 59 -1 117q49 36 93 95.5t73 125.5q30 66 36 118q6 40 -10 70t-57 15q-66 -24 -115 -137t-61 -241q-14 20 -41 25q-27 4 -55.5 -15.5
t-45.5 -49t-14.5 -64t31.5 -55.5q12 -9 26 -9t25 5t25.5 18.5t23.5 23.5t23 27q1 -13 4.5 -29t9 -36.5t14.5 -36t20.5 -26t27.5 -9t34 17.5q26 23 56 73q5 -33 32 -52zM643 659q32 29 47.5 2.5t9.5 -64.5q-6 -53 -35 -116q-65 -142 -156 -212q18 115 58.5 234t75.5 156z
M322 692q32 29 47.5 2.5t9.5 -64.5q-6 -53 -35 -116q-65 -142 -156 -212q18 115 58.5 234t75.5 156zM428 313q12 1 22.5 -8.5t14.5 -24.5q-3 -28 -1 -59q-51 -57 -71 -70q-27 -16 -45 1q-13 19 0 54t39 70t41 37zM107 346q12 1 22.5 -8.5t14.5 -24.5q-3 -28 -1 -59
q-51 -57 -71 -70q-27 -16 -45 1q-13 19 0 54t39 70t41 37z" />
    <glyph glyph-name="e_e" unicode="ee" horiz-adv-x="382" 
d="M397 300h7q-32 -86 -75 -145.5t-85 -53.5q-43 6 -62 43.5t-13 86.5q-31 -61 -66.5 -100.5t-66.5 -34.5q-50 8 -61 64t16.5 112.5t74.5 67.5q16 4 29 -3t9 -26q-4 -22 -25.5 -36t-39.5 -1q-16 -45 -18 -101t16 -64q21 -7 49.5 19.5t48.5 59.5t39 71q10 38 33.5 65.5
t55.5 35.5q18 4 32.5 -3.5t9.5 -28.5q-4 -24 -28 -40.5t-44 -0.5q-18 -46 -16.5 -105.5t27.5 -68.5q23 -7 47.5 11t46.5 56.5t33.5 62t25.5 57.5zM273 348q-20 -11 -35 -53q16 -14 38 0t24 34q1 13 -8 18.5t-19 0.5zM75 329q-19 -10 -32 -47q14 -12 34 0t22 30q1 12 -7.5 17
t-16.5 0z" />
    <glyph glyph-name="f_f" unicode="ff" horiz-adv-x="392" 
d="M221 123q-17 57 -17 135q-28 -32 -75 -59.5t-77 -36.5v-1q36 -16 74.5 -71t20.5 -87q-25 -33 -70 12t-58 90q-21 66 -14 147t29 153.5t64.5 128.5t91.5 72q34 9 52 -8.5t15 -51.5q-5 -34 -22 -69q-24 -53 -68.5 -102.5t-97.5 -74.5q-16 -84 -17 -130q30 8 79 37.5
t73 62.5q3 141 59 267t134 148q38 11 58.5 -9t16.5 -58q-5 -37 -24 -78q-27 -60 -77 -115t-110 -84q-17 -88 -18 -145q137 39 165 104h9q-26 -71 -174 -113v-2q41 -18 85 -80t21 -97q-24 -37 -68.5 13t-59.5 102zM398 666q-39 -40 -76 -127t-59 -188q57 29 103.5 82
t73.5 111q20 41 23 75q4 33 -18.5 51.5t-46.5 -4.5zM191 589q-35 -35 -68 -112.5t-53 -168.5q51 26 93 73.5t65 98.5q18 36 21 67q3 29 -17 45.5t-41 -3.5zM243 176q2 -50 39 -121q35 -66 55 -49q3 3 5 7q17 34 -22.5 90.5t-76.5 72.5zM52 153q2 -47 37 -111q32 -59 49 -38
q2 1 3 4q15 30 -20.5 80.5t-68.5 64.5z" />
    <glyph glyph-name="g_g" unicode="gg" horiz-adv-x="568" 
d="M399 206q-11 -7 -31 -29t-37.5 -34t-32.5 -6q-44 16 -49 64q-21 -20 -53 -41q-2 -52 -13 -107.5t-32.5 -110.5t-59 -95.5t-85.5 -52.5q-40 -10 -67 10t-24 71q3 39 28 80.5t63 77t73 61.5t70 47q7 69 -7 100q-11 -7 -31 -29t-37.5 -34t-32.5 -6q-55 22 -49 85q5 56 48 91
q42 36 87 16q35 -15 28 -67q-3 -28 -10 -28q-6 2 -6 13q2 32 -1.5 43.5t-14.5 13.5q-51 17 -77 -38q-21 -45 -7 -86q9 -25 29 -27q3 0 8.5 3t12.5 10l13 13.5l14 15.5t13 14q41 44 59 -8q7 -24 8 -63q36 25 52 43q2 54 44.5 94t91.5 19q35 -15 28 -67q-3 -28 -10 -28
q-6 2 -6 13q2 32 -1.5 43.5t-14.5 13.5q-51 17 -77 -38q-21 -45 -7 -86q9 -25 29 -27q3 0 8.5 3t12.5 10l13 13.5l14 15.5t13 14q41 44 59 -8q7 -24 8 -63q48 35 81.5 72t52.5 90h9q-35 -102 -143 -175q-2 -52 -13 -107.5t-32.5 -110.5t-59 -95.5t-85.5 -52.5
q-40 -10 -67 10t-24 71q3 39 28 80.5t63 77t73 61.5t70 47q7 69 -7 100zM405 94q-32 -19 -64.5 -43t-69.5 -58t-62 -74t-28 -77q-4 -39 16.5 -60t49.5 -14q19 5 35.5 18t29 28.5t24.5 41.5t19.5 45t16 51.5t12.5 49.5l11.5 50zM148 129q-32 -19 -64.5 -43t-69.5 -58t-62 -74
t-28 -77q-4 -39 16.5 -60t49.5 -14q19 5 35.5 18t29 28.5t24.5 41.5t19.5 45t16 51.5t12.5 49.5l11.5 50z" />
    <glyph glyph-name="h_h" unicode="hh" horiz-adv-x="560" 
d="M406 89q1 -16 22 -18.5t33 9.5q64 56 124 220h10q-20 -60 -55 -128.5t-72 -98.5q-24 -16 -46.5 -12.5t-34.5 20.5q-17 20 -15.5 55t12 65t13 60t-12.5 38q-10 4 -25 -17t-29.5 -62t-22.5 -88q-4 -1 -6.5 1.5t-3.5 10.5q-6 24 -9 61q-61 -169 -108 -207
q-24 -16 -46.5 -12.5t-34.5 20.5q-17 20 -14 64t15 85t15.5 79.5t-11.5 46.5q-10 4 -25 -17t-29.5 -62t-22.5 -88q-4 -1 -6.5 1.5t-3.5 10.5q-8 34 -9.5 89.5t4.5 120t26 133t51 117.5q57 89 131 105q32 7 45 -18t9 -62q-4 -39 -28 -89q-29 -67 -83 -130t-116 -97
q-13 -69 -17 -133q8 33 19 62t34 55t49 17q20 -7 21 -45t-8.5 -81.5l-19 -91t-7.5 -64.5q1 -16 22 -18.5t33 9.5q48 41 114 226q-3 94 16.5 197.5t65.5 175.5q57 89 131 105q32 7 45 -18t9 -62q-4 -39 -28 -89q-29 -67 -83 -130t-116 -97q-13 -69 -17 -133q8 33 19 62t34 55
t49 17q20 -7 22.5 -36t-5.5 -62l-16.5 -71t-6.5 -56zM329 324q59 34 110 95t80 126q21 47 26 85q3 32 -6.5 55t-37.5 14q-59 -19 -102.5 -127.5t-69.5 -247.5zM49 306q59 34 110 95t80 126q21 47 26 85q3 32 -6.5 55t-37.5 14q-59 -19 -102.5 -127.5t-69.5 -247.5z" />
    <glyph glyph-name="i_i" unicode="ii" horiz-adv-x="278" 
d="M211 361q-52 -178 -19 -206q17 -14 31 -4q19 12 37.5 47t26.5 59t12 43h9q-36 -126 -78 -155q-27 -19 -59 -2q-26 13 -32 50q-30 -99 -60 -119q-27 -19 -59 -2q-28 15 -29 78.5t11.5 121.5t25.5 90q1 2 8 4.5t15 3.5t14.5 -2t6.5 -11q-4 -12 -9.5 -35t-14 -62.5
t-14 -73.5t-4.5 -64t11 -38q17 -14 31 -4q30 18 65 131q-4 71 30 155q1 2 8 4.5t15 3.5t14.5 -2t6.5 -11zM211 441q12 -2 16 -15.5t-3 -25t-21 -8.5q-9 1 -13.5 7t-4.5 13.5t3 14t9.5 11t13.5 3.5zM72 437q12 -2 16 -15.5t-3 -25t-21 -8.5q-9 1 -13.5 7t-4.5 13.5t3 14
t9.5 11t13.5 3.5z" />
    <glyph glyph-name="j_j" unicode="jj" horiz-adv-x="277" 
d="M-21 -259q-52 8 -47 84q-33 -36 -76 -32q-37 5 -42 49t8 87t29 69q17 29 43 57t46 44t54 41q9 54 12.5 136t5.5 95q0 4 9 7t19 2.5t13 -7.5q12 -33 -4 -189q66 50 94 115q2 45 4 64q0 4 9.5 7.5t20.5 2.5t14 -8q13 -37 -4 -204q78 61 106 139h10q-27 -81 -117 -153
q-2 -9 -9 -45.5l-11 -56.5t-13 -59t-17.5 -63l-20.5 -57t-26 -53.5t-30.5 -39.5t-37 -26.5t-42.5 -5.5zM127 102q-80 -58 -115 -101q-31 -115 -70 -165q-11 -82 39 -86q29 -3 54.5 30t41 84.5t26.5 102t17 92t7 43.5zM-7 129q-98 -71 -135 -135q-14 -24 -27.5 -65t-10 -83
t37.5 -44q27 -3 50.5 27.5t38 78.5t24.5 94.5t16 86t6 40.5zM48 171l-32 -152q34 37 112 95q10 64 14 163q-29 -56 -94 -106zM176 469q10 -2 15 -17.5t-0.5 -29.5t-21.5 -12q-25 2 -24 29q1 23 19 30q6 2 12 0zM39 470q9 -2 13.5 -16.5t-0.5 -27.5t-20 -11q-17 2 -21 17.5
t5 28.5t23 9z" />
    <glyph glyph-name="k_k" unicode="kk" horiz-adv-x="537" 
d="M515 699q39 -18 12 -116q-20 -71 -73.5 -145t-119.5 -113q-4 -26 -12 -69l-13.5 -73.5t-7.5 -47.5q6 30 16 62t25 67t36.5 53t43.5 10q21 -8 25.5 -41.5t-11.5 -65t-45 -34.5q16 0 23.5 -26.5t14 -52t19.5 -23.5q13 1 25 11t22 27.5t18 35t16 42t12 39t9.5 36.5t6.5 25
h10q-6 -23 -8.5 -33.5t-9.5 -37t-12.5 -40.5l-14.5 -37t-18 -35t-20 -24.5t-23.5 -16t-25.5 0.5q-33 10 -54.5 45.5t-6.5 67.5q11 16 20 47t10.5 51.5t-2.5 23.5q-24 -1 -43.5 -40.5t-37 -95.5t-23.5 -69q-22 25 -24 90q-13 -49 -27 -85t-39 -63t-52 -19q-33 10 -54.5 45.5
t-6.5 67.5q11 16 20 47t10.5 51.5t-2.5 23.5q-24 -1 -43.5 -40.5t-37 -95.5t-23.5 -69q-18 20 -23 66.5t2.5 104.5t23 122.5t39.5 122.5t51.5 102.5t60 65.5t63.5 8q39 -18 12 -116q-20 -71 -73.5 -145t-119.5 -113q-4 -26 -12 -69l-13.5 -73.5t-7.5 -47.5q6 30 16 62t25 67
t36.5 53t43.5 10q21 -8 25.5 -41.5t-11.5 -65t-45 -34.5q16 0 23.5 -26.5t14 -52.5t19.5 -24q56 6 105 203q6 101 40.5 215.5t90.5 190.5t110 54zM336 338q62 37 111.5 108t70.5 140q5 16 8.5 35.5t1 41.5t-17.5 26q-14 3 -28.5 -3.5t-27.5 -24t-24 -35.5t-22.5 -48.5
l-19.5 -52t-17.5 -56.5l-14 -50.5t-12 -47t-8.5 -33.5zM57 291q62 37 111.5 108t70.5 140q5 16 8.5 35.5t1 41.5t-17.5 26q-14 3 -28.5 -3.5t-27.5 -24t-24 -35.5t-22.5 -48.5l-19.5 -52t-17.5 -56.5l-14 -50.5t-12 -47t-8.5 -33.5z" />
    <glyph glyph-name="l_l" unicode="ll" horiz-adv-x="468" 
d="M251 148q-15 53 -15 124q-49 -120 -81 -166q-27 -35 -46 -46q-32 -18 -60 9.5t-38 65.5q-35 131 15.5 282t141.5 196q31 14 45 0q23 -23 -1 -96q-22 -64 -66.5 -129t-100.5 -100q-19 -92 -12 -151q5 -34 24.5 -60.5t48.5 -9.5q23 15 41 43q38 57 89 183q5 129 59.5 243.5
t132.5 152.5q34 17 51 0q26 -26 -1 -108q-26 -73 -76 -146.5t-113 -113.5q-22 -106 -13 -170q5 -39 27 -69t55 -11q25 15 47 49q26 39 51.5 96.5t33.5 83.5h9q-42 -120 -86 -185q-30 -40 -51 -52q-37 -20 -68.5 11t-42.5 74zM436 679q-37 -36 -79 -137t-66 -209
q60 40 109 111.5t70 138.5q25 77 3 99q-10 7 -20 5t-17 -8zM175 604q-33 -31 -70.5 -120.5t-58.5 -185.5q54 36 97 99t62 122q22 68 3 88q-14 13 -33 -3z" />
    <glyph glyph-name="m_m" unicode="mm" horiz-adv-x="830" 
d="M429 312q22 -12 10 -79q16 59 25 82q21 51 43 51q15 0 17 -23q2 -30 -2 -77t-13 -71q25 49 91.5 115t102.5 67q65 -2 7 -170l-7 -23.5t-12 -45.5t-12 -54.5t-5 -47t8 -26.5q18 -10 46.5 29t54 97t43.5 104.5t22 59.5h9q-104 -301 -170 -301q-30 0 -51 34q-19 45 0 105.5
l38 125t4 76.5q-21 16 -85 -49t-87 -121q-5 -12 -9.5 -16.5t-7 -4t-5.5 4.5t-3.5 6.5t-1.5 5.5l7 65q7 65 -1 73q-10 16 -24 -24q-6 -17 -19 -64q-23 -82 -32 -82q-12 4 -13 47.5t3 86.5q-6 -13 -20.5 -49l-26.5 -63.5t-28 -57.5t-32.5 -46.5t-31.5 -16.5q-28 0 -46 31
q-18 41 -0.5 95.5l35 112.5t3.5 69q-20 14 -77.5 -44.5t-78.5 -109.5q-4 -10 -8 -14.5t-6.5 -4t-5 4.5t-3 6.5t-1.5 4.5l7 58q6 59 -2 66q-9 14 -22 -22q-6 -16 -17 -57q-21 -74 -29 -74q-6 2 -9 11.5t-3 26t0.5 32.5t2 38t1.5 35v3t1 2.5t1.5 2t2 1.5t3 1.5t4 1.5t5 1.5
t6.5 2t7 2.5q13 -27 4 -74q21 71 23 76q20 48 44 53q16 4 17 -16q2 -26 -1.5 -68.5t-11.5 -64.5q22 43 78.5 97t89.5 55q58 -2 11 -153q0 -1 -5 -16t-10 -32t-10.5 -39t-8.5 -40t-2.5 -32.5t6.5 -18.5q19 -6 40 20.5t39.5 69l36 85t32.5 70t25 22.5z" />
    <glyph glyph-name="n_n" unicode="nn" horiz-adv-x="455" 
d="M239 304l35 10q2 -20 -6.5 -59t-8.5 -41q54 117 110 121q24 2 15 -44q-2 -10 -33 -111q-28 -87 -1 -90q13 0 28 10q13 9 26 27t22.5 38t19 44t15 41l10.5 33t5 17h10q-17 -52 -26 -77t-31.5 -69.5t-44.5 -61.5q-17 -14 -39 -13.5t-35 19.5q-16 24 9.5 106.5t21.5 89.5
q-14 28 -58 -54q-5 -11 -17 -33q-31 -61 -38 -61q-27 9 -4 109q-58 -116 -104 -125q-29 -4 -40 12t-7 44t12.5 56.5l15.5 52.5t4 29q-13 25 -53 -52q-38 -72 -42 -76q-3 -4 -5 -3q-15 7 -11.5 46.5t22.5 93.5q14 8 30 8q2 -18 -5 -50t-8 -38q47 103 97 107q16 1 13 -33
q-1 -13 -23 -111q-16 -75 2 -75q5 0 13 4q23 14 56.5 68t47.5 91z" />
    <glyph glyph-name="o_o" unicode="oo" horiz-adv-x="388" 
d="M321 349q26 -8 11 -48q-5 -15 -9 -16q-3 0 0 11q1 4 3.5 11.5t3.5 11t0.5 8t-3.5 7t-9 4.5q-36 2 -64 -54t-16 -88q11 -29 43 -7q30 21 35 52q1 10 -2 19q-10 5 -14 14.5t3 17.5q12 -9 19 -25q22 -8 49.5 1t32.5 32h9q-4 -27 -33.5 -38.5t-55.5 -4.5q5 -43 -30 -71t-71 2
q-28 23 -19 72q-34 -19 -72 -8q3 -32 -15.5 -61t-46 -36t-57.5 15q-23 20 -24 57.5t15.5 71t51 53t73.5 8.5q29 -9 14 -54q-7 -19 -12 -21q-3 0 0 13q1 4 4.5 13t4 13t0.5 9.5t-4 8.5t-11 5q-28 2 -54 -30t-37.5 -73t-2.5 -64q12 -32 48 -9q33 21 42 56q4 16 -1 28
q-12 6 -17 17t4 21q14 -10 23 -30q42 -14 77 11q12 39 43.5 62.5t70.5 12.5z" />
    <glyph glyph-name="p_p" unicode="pp" horiz-adv-x="561" 
d="M281 169q1 28 -1.5 74t-2.5 47q-10 -38 -19.5 -63t-28.5 -47.5t-43 -20.5q-25 -47 -61 -47q-25 0 -24 19q0 21 25 33q11 5 24 5q13 34 18 65.5t-5 44.5q-13 10 -38.5 -7.5t-41 -34.5t-26.5 -31q1 -127 -31 -260t-84 -175q-14 -12 -30 -15t-29 6.5t-14 33.5q-3 30 10 83
q33 133 129 275q1 32 -1.5 80t-1.5 65q0 14 21 22q20 7 22 -5q8 -42 8 -98l16 19t17.5 19t21 18t21 11.5t23 5t22.5 -6.5q23 -15 25.5 -50.5t-12.5 -66.5q16 0 30 13.5t25.5 42.5t16 43.5t12.5 47.5q2 8 3 11q0 8 11.5 16.5t21.5 9t14 -7.5q8 -45 8 -105q10 13 17 20t19 20
t22.5 19.5t23 12.5t24.5 5.5t24 -7.5q25 -16 27.5 -54t-13.5 -71q69 0 100 117h10q-36 -126 -114 -126q-27 -50 -65 -50q-28 0 -26 21q1 22 27 35q12 5 25 5q15 37 20 71t-6 47q-11 8 -28.5 0.5t-36.5 -26t-30 -30.5t-19 -22q1 -136 -33.5 -279.5t-89.5 -188.5
q-22 -21 -49 -16t-30 43q-3 35 11 89q37 146 139 296zM204 -226q40 41 55.5 139.5t20.5 239.5q-94 -143 -129 -282q-16 -60 -5 -100q13 -43 58 3zM-63 -213q61 62 70 352q-86 -133 -120 -262q-15 -57 -4 -94q12 -38 54 4zM404 137q11 7 26 39q-26 3 -36 -22q-7 -17 4 -19
q2 0 6 2zM123 124q9 6 24 37q-25 2 -34 -22q-5 -16 5 -17q2 0 5 2z" />
    <glyph glyph-name="q_q" unicode="qq" horiz-adv-x="544" 
d="M411 256q6 -27 -4 -28q-9 -2 -14 20q-1 4 -1 8q-2 14 -12.5 24.5t-16.5 11.5q-16 1 -33.5 -13t-28.5 -36t-16.5 -45.5t0.5 -42.5t24 -25q16 -6 55.5 25t60.5 62q18 28 19 10q1 -15 -7 -33q-18 -41 -32 -87q119 46 156 193h9q-42 -158 -169 -203q-13 -41 -24 -91
q70 -138 63 -215q-2 -31 -22 -42.5t-44 8.5q-32 29 -44.5 80t-7.5 104.5t22 109.5q-12 18 -9.5 27.5t22.5 14.5q16 43 41 82q-58 -48 -85 -52q-32 -5 -49 23t-15 69q-42 -50 -105 -72q-15 -47 -23 -89q68 -134 62 -213q-2 -31 -22 -42t-43 9q-47 42 -51.5 128.5t21.5 160.5
q-12 18 -9.5 27.5t22.5 14.5q15 41 40 81q-56 -48 -83 -51q-43 -7 -58 45q-16 53 9 104t73 49q59 -1 72 -68q6 -26 -4 -28q-9 -1 -14 20q-1 4 -1 8q-1 14 -11.5 25t-16.5 12q-16 1 -33 -13t-28 -36t-16.5 -45t0.5 -42t24 -25q16 -5 55 25t59 61q19 29 19 8q-1 -14 -7 -31
q-17 -37 -32 -85q64 24 103 78q6 40 28.5 67t58.5 26q58 -1 73 -68zM375 -8q-36 -167 5 -222q18 -22 33.5 -13.5t17.5 34.5q9 68 -56 201zM119 40q-36 -166 4 -219q19 -22 34 -14t16 34q10 65 -54 199zM347 62q4 14 7 20q-11 -5 -12 -7.5t5 -12.5z" />
    <glyph glyph-name="r_r" unicode="rr" horiz-adv-x="450" 
d="M344 80q63 57 126 220h9l-4 -10l-8.5 -22.5t-12.5 -29l-16 -34.5t-18.5 -36.5t-21 -36t-23 -32t-24.5 -26.5q-27 -24 -58.5 -21.5t-41.5 28.5q-13 32 4.5 84.5t40.5 97.5t23 55q0 1 -11 -2.5t-27.5 -8t-27.5 -6.5q-83 -249 -148 -307q-29 -22 -50 -14.5t-35 34.5
q-19 36 0 104.5t46.5 129.5t27.5 70q0 1 -13 -3t-32 -9t-29 -6q-42 -3 -43 38q-1 38 25 68q25 28 42 2q8 -12 -15 -103q8 1 21.5 6l23.5 8.5t22 4.5t16 -6q13 -17 12 -38t-13 -56t-26 -65t-28 -66.5t-18 -60.5q-4 -28 15 -40t44 9q12 11 26 31t27 46l25 52t24 55.5l19.5 49
l15.5 41.5t9 24q-41 -3 -42 38q-1 38 25 68q25 28 42 2q8 -12 -15 -103q8 1 21.5 6l23.5 8.5t22 4.5t16 -6q13 -13 14 -30.5t-8 -39t-20 -43.5t-22.5 -50.5t-15.5 -52.5q-4 -28 15 -35.5t44 14.5zM263 401q-21 -6 -30 -48.5t12 -47.5q22 86 18 96zM38 401q-21 -6 -30 -48.5
t12 -47.5q22 86 18 96z" />
    <glyph glyph-name="s_s" unicode="ss" horiz-adv-x="345" 
d="M214 405q11 -19 -25 -91q6 -11 21 -33t25.5 -41t16.5 -37q87 35 107 97h10q-22 -69 -115 -106q9 -39 -8 -87.5t-55 -53.5q-31 -4 -35 32q-5 43 24 79q15 18 34 25q-4 13 -11 27l-17 33l-15 28q-24 -47 -76 -68q9 -39 -8 -87.5t-55 -53.5q-31 -4 -35 32q-5 43 24 79
q15 18 34 25q-5 18 -19 42.5l-23 40t-14 41.5t7 47q5 11 13.5 20.5t20 14t20.5 -11.5q11 -19 -25 -91q6 -11 28.5 -38.5t29.5 -50.5q49 19 73 71q-23 54 -6 93q5 11 13.5 20.5t20 14t20.5 -11.5zM217 180q-38 -16 -49 -67q-8 -40 11 -48q4 -2 10 0q24 6 30.5 49t-2.5 66z
M58 195q-38 -16 -49 -67q-8 -40 11 -48q4 -2 10 0q24 6 30.5 49t-2.5 66zM185 324q28 65 22 77q-9 16 -20 -8q-16 -36 -3 -66q0 -2 1 -3zM31 317q28 65 22 77q-9 16 -20 -8q-16 -36 -3 -66q0 -2 1 -3z" />
    <glyph glyph-name="t_t" unicode="tt" horiz-adv-x="390" 
d="M-85 577l-8 2q3 11 13.5 16t32.5 3.5t38.5 -4.5l49.5 -9l13 76q3 23 23 12q23 -11 25 -37q1 -5 0 -10q-3 -27 -9 -53q6 -1 31.5 -7l54.5 -12.5t55 -11.5q15 73 19 103q2 22 23 13q22 -10 27 -35q1 -7 0 -14q-6 -37 -15 -75q94 -11 97 17h8q-1 -33 -106 -22
q-4 -19 -13.5 -57.5l-14 -58t-12 -58.5t-9 -59.5l-4.5 -60.5t2 -62q1 -18 8.5 -42.5t25 -42t38.5 -2.5q19 14 36 42q23 38 43.5 91t25.5 81h10q-6 -28 -27 -82.5t-45 -93.5q-17 -28 -37 -45q-38 -24 -68.5 12.5t-40.5 75.5q-10 40 -12 82q-21 -55 -44 -91q-17 -28 -36 -44
q-37 -23 -67 12.5t-38 72.5q-4 19 -7 38t-2.5 42.5t0 39.5t3.5 44.5t5 40.5t7.5 45.5l8 41l9 45t8.5 41.5q-118 27 -125 0zM233 537q-26 4 -55 10t-54.5 12t-32.5 7l-20 -85t-21 -96.5t-11 -84.5t-1 -95q1 -18 8.5 -41.5t24 -40.5t36.5 -2q18 14 35 41q25 42 51 111
q0 25 2 50.5t7.5 57.5l8.5 48.5t11.5 57z" />
    <glyph glyph-name="u_u" unicode="uu" horiz-adv-x="541" 
d="M316 362q27 -45 -13 -157q-12 -39 -7 -39q22 4 62 79t53 84q6 4 13 -4t10 -21q8 -28 -8 -127q-1 -5 -2.5 -15.5t-3 -17.5t-2.5 -16.5t-1 -15.5t1 -11.5t4 -8t8 -1.5q51 12 114 209h10q-9 -35 -26.5 -81.5t-46 -91t-53.5 -44.5q-14 0 -25 12.5t-14 30.5q-10 58 10 178
q-3 -5 -15 -28q-63 -122 -93 -127q-11 -1 -19 10q-15 21 -12 66q-32 -88 -66.5 -154t-61.5 -65q-14 0 -25 12.5t-14 30.5t1.5 58t11 75l14.5 75t9 47q-3 -5 -15 -28q-63 -122 -93 -127q-11 -1 -19 10q-9 13 -11 35t0 39.5t7 48.5t7 45q1 14 15 26t26 9q27 -45 -13 -157
q-12 -39 -7 -39q22 4 62 79t53 84q6 4 13 -4t10 -21q3 -9 -3.5 -47.5t-17.5 -90t-13 -66.5q-1 -5 -2.5 -15.5t-3 -17.5t-2.5 -16.5t-1 -15.5t1 -11.5t4 -8t8 -1.5q48 12 133 266q6 32 8 47q1 14 15 26t26 9z" />
    <glyph glyph-name="v_v" unicode="vv" horiz-adv-x="566" 
d="M353 369q-22 4 -44.5 -14t-41 -45l-37 -53.5t-40 -41.5t-43.5 -8q66 106 51 147q-2 7 -12 9.5t-16 -2.5q-16 -12 -32.5 -42.5t-21 -63t19.5 -50.5q-31 -54 -64 -75q-31 -21 -35 21q-2 17 9.5 69.5l20.5 95.5t4 46q-11 8 -32 -2t-24 -20q-16 -72 -20 -143q-2 -41 12 -64
t43 -19q7 1 14 4t14.5 9.5l13.5 12t14.5 15.5l12.5 15l13 16.5t11 14.5q30 -11 54.5 10.5t72.5 86.5l14 19q-21 -99 -23 -139q-2 -47 13.5 -74t49.5 -23q6 1 12.5 3t13.5 7t12.5 9.5t13 12.5l12.5 13t12.5 15t11 14t11.5 14.5t10 13.5q44 -14 88.5 21t72.5 96h-9
q-19 -44 -61 -83t-87 -27q77 123 60 171q-3 9 -14.5 11.5t-18.5 -3.5q-19 -14 -38 -50t-23.5 -73.5t22.5 -58.5q-36 -60 -73 -86q-39 -26 -43 24q-2 20 12.5 80l26 110.5t5.5 53.5zM430 194q-24 32 13 104q23 43 36 45q6 1 5 -11q-5 -54 -54 -138zM141 211q-21 28 13 92
q20 36 30 36q4 0 3 -10q-4 -46 -46 -118z" />
    <glyph glyph-name="w_w" unicode="ww" horiz-adv-x="804" 
d="M586 308q16 -6 -10 -109q-32 -126 -30 -158q1 -40 35 -26q39 18 118 210q-53 21 -24 90q20 46 52 68q26 19 25 -9v-3q-3 -47 -39 -140q32 -6 63 15t47 54h10q-20 -38 -53 -60.5t-71 -15.5q-82 -198 -125 -217q-47 -19 -57 56q-10 74 12 180q0 3 1 6q-51 -90 -91 -138
q-32 -39 -54 -33t-20 57q2 60 31 184q-63 -95 -115 -85q-56 -136 -106 -158q-30 -12 -45.5 8.5t-16 59t2.5 68t7 47.5q-46 -83 -85 -130q-30 -37 -50.5 -31t-19.5 54q4 71 36 200q6 14 29 16.5t26 -4.5q5 -8 2.5 -30t-4.5 -37t-9.5 -40.5t-12.5 -40l-12.5 -36t-9.5 -28.5
q-13 -41 -9 -42q3 -1 27 25q37 41 100 154q3 15 15 21.5t21 3.5q15 -6 -7 -92q-27 -102 -22 -126q5 -25 34 -13q44 20 101 153q-51 20 -21 87q19 44 49 64q22 14 21 -10v-3q-1 -39 -36 -132q28 -5 63 31.5t54 74.5q7 15 31 18t28 -5q2 -15 3 -27t-3 -33t-7.5 -36
t-10.5 -37.5l-11.5 -36l-11 -31.5t-8.5 -25q-13 -42 -10 -45q2 -2 29 27q44 50 106 164q3 15 16 22.5t22 4.5zM704 234q35 85 41 137q1 12 -19 -14q-40 -52 -38 -93q0 -21 16 -30zM287 245q33 80 39 129q1 12 -18 -14q-39 -52 -36 -89q2 -18 15 -26z" />
    <glyph glyph-name="x_x" unicode="xx" horiz-adv-x="501" 
d="M210 103q15 51 85 110l-44 82q-8 -32 -16.5 -57t-23 -56t-35 -46.5t-44.5 -10.5q-43 7 -86 86q-64 -52 -77 -100q-3 -11 -8 -6q-2 2 0 7q15 51 81 106l-44 82q-5 14 6 26.5t20 11.5q27 -16 55 -89q67 52 81 101q1 7 5 9q2 1 3 -3q0 -3 -1 -7q-13 -51 -84 -109
q20 -47 41 -74.5t45 -18.5q26 11 47 60.5t31 97.5q-3 14 8.5 26t20.5 11q29 -17 59 -96q72 57 87 109q2 10 6.5 9.5t1.5 -10.5q-15 -56 -91 -117q36 -85 53 -107q21 -24 40 -17q21 9 40 49.5t28 73.5t15 64h8q-28 -116 -52 -159q-34 -60 -79 -52q-12 2 -23 10.5t-22.5 25
t-17.5 26.5t-17 31l-12 23q-67 -54 -81 -103q-2 -7 -6 -8q-3 0 -4 4q0 2 1 5z" />
    <glyph glyph-name="y_y" unicode="yy" horiz-adv-x="481" 
d="M335 104q4 22 8.5 81t-0.5 90l-8.5 -17.5l-11.5 -23.5t-14.5 -24.5t-17.5 -20.5t-20 -11.5t-23 2.5q-24 11 -26 52q-34 -52 -81 -89q-1 -55 -21.5 -126.5t-62 -135.5t-90.5 -78q-34 -10 -53 8t-15 53q3 32 22 71q25 55 75 110t105 82q4 20 8.5 74.5t-1.5 81.5
q-2 -3 -6.5 -13l-8 -18t-10 -19.5t-12.5 -18.5t-14.5 -14t-16.5 -7t-18 3q-42 20 -13 125q9 18 27.5 16.5t23.5 -8.5q-1 -6 -6 -21.5l-10 -31t-10 -33t-4.5 -27.5t5.5 -15q16 -9 39 31t35 77q9 18 14.5 13t8.5 -23q14 -86 9 -144q49 40 81 94q1 26 12 67q5 14 18 17.5
t24 -0.5t14 -8q-1 -6 -6.5 -23l-11.5 -34t-10.5 -36.5t-4.5 -30.5t6 -16q17 -10 41 32.5t40 85.5q13 34 23 -1q1 -4 2 -10q15 -91 10 -157q80 65 119 165h9q-37 -107 -128 -178q-2 -61 -24.5 -139t-67.5 -148.5t-99 -85.5q-38 -11 -58.5 9t-16.5 58q5 37 24 78
q27 60 82.5 120.5t115.5 89.5zM187 -230q40 41 82.5 133.5t63.5 190.5q-57 -29 -109.5 -87.5t-78.5 -116.5q-20 -41 -23 -75q-4 -33 18.5 -50.5t46.5 5.5zM-34 -178q37 37 75.5 121.5t57.5 174.5q-52 -27 -99.5 -80.5t-71.5 -105.5q-18 -37 -21 -69q-4 -30 16.5 -46t42.5 5z
" />
    <glyph glyph-name="T_h" unicode="Th" horiz-adv-x="761" 
d="M607 89q1 -16 22 -18.5t33 9.5q64 56 124 220h10q-20 -60 -55 -128.5t-72 -98.5q-24 -16 -46.5 -12.5t-34.5 20.5q-17 20 -15.5 55t12 65t13 60t-12.5 38q-10 4 -25 -17t-29.5 -62t-22.5 -88q-4 -1 -6.5 1.5t-3.5 10.5q-13 52 -10 149q-48 -19 -96.5 -10.5t-82.5 44.5
q-8 5 -2 8q4 2 9 -3q32 -35 78.5 -42.5t94.5 12.5q10 190 81 302q57 89 131 105q32 7 45 -18t9 -62q-4 -39 -28 -89q-29 -67 -83 -130t-116 -97q-13 -69 -17 -133q8 33 19 62t34 55t49 17q20 -7 22.5 -36t-5.5 -62l-16.5 -71t-6.5 -56zM277 648q3 -5 0.5 -29t-2 -30.5
t-4 -33l-6 -35.5t-7 -37.5t-8 -39.5l-9.5 -42.5l-10 -45.5q3 -2 7 -7t6 -7q39 -53 32 -154q-2 -43 -13.5 -76.5t-29.5 -43.5q-20 -9 -43 7q-58 42 -9 291q-25 0 -59 -19l-4 6q37 22 65 22q10 47 25 107t24 100.5t12 69.5q-14 1 -55.5 5t-73.5 6.5t-77 3.5t-77 -4t-61.5 -15
t-43.5 -30.5t-11 -50.5q1 -8 -4 -8t-6 8q-6 63 53.5 88.5t156.5 21t198 -15.5t194 -11.5t129 24.5q13 9 13 28q1 12 -9 12h-2q-5 0 -11 -10q-5 -8 -10 -4q-3 2 1 8q7 14 18 16q15 2 20 -9.5t0.5 -26t-14.5 -21.5q-32 -22 -101 -26t-194 8zM530 324q59 34 110 95t80 126
q21 47 26 85q3 32 -6.5 55t-37.5 14q-59 -19 -102.5 -127.5t-69.5 -247.5zM229 345q-12 -56 -19 -95.5t-12 -79t-2 -63t13 -31.5q9 -7 19 -2q35 19 40 114q6 97 -32 148q-2 4 -7 9z" />
    <glyph glyph-name="t_h" unicode="th" horiz-adv-x="475" 
d="M321 89q1 -16 22 -18.5t33 9.5q64 56 124 220h10q-20 -60 -55 -128.5t-72 -98.5q-24 -16 -46.5 -12.5t-34.5 20.5q-17 20 -15.5 55t12 65t13 60t-12.5 38q-10 4 -25 -17t-29.5 -62t-22.5 -88q-4 -1 -6.5 1.5t-3.5 10.5q-7 26 -10 78q-24 -61 -47 -98q-20 -33 -37 -45
q-35 -24 -74 3q-26 19 -38.5 58t-9 99t9 104t19 118t16.5 96q-119 30 -126 1l-9 2q9 39 137 6q14 81 16 83q5 19 26 7q24 -15 23 -42v-5l-8 -56l143 -33q17 47 41 84q57 89 131 105q32 7 45 -18t9 -62q-4 -39 -28 -89q-29 -67 -83 -130t-116 -97q-13 -69 -17 -133
q8 33 19 62t34 55t49 17q20 -7 22.5 -36t-5.5 -62l-16.5 -71t-6.5 -56zM99 544q-4 -30 -15 -93t-18 -109t-13.5 -99t-5 -90.5t11.5 -56.5q7 -14 22.5 -17t30.5 7q19 14 36 42q29 48 53 119q-2 144 40 265q-25 4 -53.5 10.5l-55 13t-33.5 8.5zM244 324q59 34 110 95t80 126
q21 47 26 85q3 32 -6.5 55t-37.5 14q-70 -22 -125 -186q66 -7 69 16h9q0 -31 -80 -24q-23 -69 -45 -181z" />
    <glyph glyph-name="A_r" unicode="Ar" horiz-adv-x="599" 
d="M286 728q52 -2 21 -193q-8 -47 -38 -195q38 -73 44 -143q56 29 79 102q-41 -2 -41 38q0 38 25 67t42 3q6 -10 -14 -100q8 1 21.5 5.5t23.5 7.5t20.5 3t16.5 -6q13 -13 14 -29.5t-7.5 -36.5t-20 -40.5t-23 -48t-15.5 -51.5q-4 -28 15 -40t44 9q63 57 126 220h9l-4 -10
l-8.5 -22.5t-12.5 -29l-16 -34.5t-18.5 -36.5t-21 -36t-23 -32t-24.5 -26.5q-29 -22 -50 -14.5t-35 34.5q-16 28 -9.5 65.5t20.5 66l28 56t14 36.5q0 1 -11 -2.5t-28 -8t-28 -6.5q-25 -78 -87 -111q2 -27 -3 -54q-10 -73 -37 -87q-22 -11 -44 6q-51 38 -22 229q12 69 20 109
q-35 51 -75 86l-70 -181l-19 -53t-27.5 -72t-32.5 -56.5t-43 -35.5q-33 -10 -51 21q-27 36 0 119q1 3 3.5 4t4 -1t0.5 -5q-24 -76 0 -114q17 -24 40 -17q20 7 40.5 37t32 58t26.5 70t18 48l71 184q-16 13 -34 23.5t-39.5 18t-37 -0.5t-18.5 -34q-2 -13 -10 -12.5t-6 13.5
q7 43 29 50q45 14 120 -50q32 82 74 163q29 57 48 68q7 4 14 5zM231 404l19.5 86.5t18.5 85t12 64.5t5 52.5t-8 21.5q-14 -3 -47 -62q-29 -56 -74 -166q39 -33 74 -82zM242 173h-3q-13 -102 9 -117q11 -7 21 -3q25 17 33 84q3 27 2 48q-29 -14 -62 -12zM265 325
q-21 -109 -25 -143h2q32 -1 62 11q-4 66 -39 132zM412 401q-21 -6 -30 -48.5t12 -47.5q22 86 18 96z" />
    <glyph glyph-name="P_r" unicode="Pr" horiz-adv-x="644" 
d="M538 80q63 57 126 220h9l-4 -10l-8.5 -22.5t-12.5 -29l-16 -34.5t-18.5 -36.5t-21 -36t-23 -32t-24.5 -26.5q-29 -22 -50 -14.5t-35 34.5q-16 28 -9.5 65.5t20.5 66l28 56t14 36.5q0 1 -11 -2.5t-28 -8t-28 -6.5q-16 -62 -59.5 -98t-100.5 -35q-6 -1 -8 3q-1 5 6 6h2
q53 -2 93.5 31t57.5 92q-27 -1 -36 17.5t-2.5 42.5t20.5 42q-24 24 -60 36q-54 -163 -154 -192q-24 -6 -45 4.5t-29 32.5q-17 46 11 94q23 39 73.5 59.5t95.5 14.5q43 161 11 230q-20 40 -66 37q-78 -5 -127 -144q-4 -69 -53 -301q53 -49 46 -168q-2 -44 -13.5 -77
t-30.5 -42q-20 -9 -42 7q-58 41 -9 290q-28 0 -59 -19l-4 6q35 23 65 21q7 34 17 77.5l17.5 76.5l15.5 68.5t12.5 60.5t6 45t-2.5 29t-13 7q-29 -7 -80 -77q-7 -9 -9.5 -6.5t2.5 11.5q50 67 83 79q29 10 41 -6.5t11 -59.5q46 118 126 130q54 8 84.5 -21t35.5 -79t0.5 -96
t-15.5 -85q35 -10 62 -37q23 25 40 0q7 -11 -16 -102q9 1 30 8.5t31 9t23 -5.5q13 -13 14 -29.5t-7.5 -36.5t-20 -40.5t-23 -48t-15.5 -51.5q-4 -28 15 -40t44 9zM310 444q-48 4 -93 -14t-69 -56q-27 -44 -10 -90q13 -32 43 -32q18 0 29 7q50 33 100 185zM75 263
q-16 -77 -24.5 -126t-9 -91.5t12.5 -52.5q10 -7 20 -1q35 18 39 112q5 102 -38 159zM457 401q-21 -6 -30 -48t12 -47q21 86 18 95z" />
    <glyph glyph-name="W_h" unicode="Wh" horiz-adv-x="831" 
d="M96 387l-2 -21q-2 -21 -2.5 -31t-2 -35t-1 -40t1 -38t4 -38t8 -30.5t12 -24.5t17.5 -12q19 -6 40 21q22 30 53 153q26 109 48 147q32 52 45 5q5 -19 -4 -119t-7.5 -179.5t31.5 -72.5q15 3 29 20q19 24 34 65.5t20.5 67.5t14.5 74q-34 15 -54 41q-8 7 -1 10q4 2 8 -4
q21 -27 49 -39q5 28 7 38q14 74 29 129t40 116t62.5 98.5t85.5 46.5q13 3 14 -1q1 -2 -3 -5q-4 -1 -9 -2q-46 -9 -82.5 -45.5t-60.5 -97.5t-38.5 -114t-28.5 -126l-8 -41q52 -20 114 2q9 187 81 299q57 89 131 105q32 7 45 -18t9 -62q-4 -39 -28 -89q-29 -67 -83 -130
t-116 -97q-13 -69 -17 -133q8 33 19 62t34 55t49 17q20 -7 22.5 -36t-5.5 -62l-16.5 -71t-6.5 -56q1 -16 22 -18.5t33 9.5q64 56 124 220h10q-20 -60 -55 -128.5t-72 -98.5q-24 -16 -46.5 -12.5t-34.5 20.5q-17 20 -15.5 55t12 65t13 60t-12.5 38q-10 4 -25 -17t-29.5 -62
t-22.5 -88q-4 -1 -6.5 1.5t-3.5 10.5q-14 59 -10 152q-61 -20 -114 -1q-11 -57 -16.5 -80.5t-20.5 -63.5t-34 -64q-18 -20 -33 -24q-116 -34 -61 344q2 13 2 14q0 20 -8 1q-18 -33 -42 -133q-28 -124 -58 -161q-21 -24 -45 -21q-98 10 -86 276q-93 5 -128 91l8 3
q32 -78 120 -86q4 38 13 75t24.5 76.5t42 65.5t60.5 30q31 5 51 -17t24 -58q8 -58 -46.5 -114t-114.5 -62zM600 324q59 34 110 95t80 126q21 47 26 85q3 32 -6.5 55t-37.5 14q-59 -19 -102.5 -127.5t-69.5 -247.5zM96 395q55 7 108 61t43 113q-5 30 -21.5 47t-41.5 11
q-74 -15 -87 -220q-1 -8 -1 -12z" />
    <glyph glyph-name=".notdef" horiz-adv-x="232" 
 />
    <glyph glyph-name=".null" horiz-adv-x="0" 
 />
    <glyph glyph-name="nonmarkingreturn" horiz-adv-x="333" 
 />
    <glyph glyph-name="NULL" horiz-adv-x="0" 
 />
    <glyph glyph-name="NULL" horiz-adv-x="0" 
 />
    <glyph glyph-name="y.ss18" horiz-adv-x="258" 
d="M98 45l12 49q5 19 10.5 84.5t-0.5 96.5l-8.5 -17.5l-11.5 -23.5t-14.5 -24.5t-17.5 -20.5t-20 -11.5t-23 2.5q-19 9 -23.5 38t-0.5 52.5t10 45.5q5 14 18 17.5t24 -0.5t14 -8q-1 -6 -6.5 -23l-11.5 -34t-10.5 -36.5t-4.5 -30.5t6 -16q17 -10 41 32.5t40 85.5q13 34 23 -1
q1 -4 2 -10q14 -94 10 -172q-1 -25 -10 -71q50 1 95 -15.5t68 -49.5q27 -40 17 -81.5t-49 -68.5q-67 -46 -224 -14q-41 -57 -88 -71q-38 -11 -58.5 9t-16.5 58q4 24 10 43q-28 8 -86 26l-68.5 21l-66 19t-66.5 17.5t-61 13t-59.5 8t-51.5 1t-48 -6t-38.5 -15.5t-32.5 -25.5
t-22 -37.5q-8 0 -4 10q12 26 31 44t47 26t55 12t68.5 -1.5t72 -10.5t81.5 -19l81.5 -22.5t86.5 -26t84 -25.5q23 65 72 113t123 65zM58 -173q150 -30 214 14q36 25 45.5 63.5t-14.5 74.5q-23 33 -66 48.5t-92 14.5q-27 -130 -87 -215zM96 37q-64 -14 -115 -62.5t-70 -110.5
q49 -14 101 -27q49 83 84 200zM-36 -230q26 28 44 60q-44 11 -100 27q-8 -23 -9 -42q-4 -33 18.5 -50.5t46.5 5.5z" />
    <glyph glyph-name="CR" unicode="&#xd;" horiz-adv-x="232" 
 />
    <glyph glyph-name="space" unicode=" " horiz-adv-x="232" 
 />
    <glyph glyph-name="exclam" unicode="!" horiz-adv-x="183" 
d="M106 708q17 16 24 -24q15 -84 -12 -285q-22 -166 -54 -234q-9 -17 -18 -14t-4 22q20 66 31.5 285t32.5 250zM48 98q5 -14 -3 -26q-7 -12 -21 -12q-13 0 -17 13q-5 12 4 25q7 12 21 12q12 0 16 -12z" />
    <glyph glyph-name="quotedbl" unicode="&#x22;" horiz-adv-x="152" 
d="M55 686q6 -19 -4.5 -41t-32.5 -26q-2 -1 -2 2l1 2q28 11 22 25q0 2 -4 2q-14 0 -17.5 13.5t3.5 22.5q7 11 18 11.5t16 -11.5zM136 686q6 -19 -4.5 -41t-32.5 -26q-3 -1 -2 2l1 2q28 11 22 25q0 2 -4 2q-14 0 -17.5 13.5t3.5 22.5q7 11 18 11.5t16 -11.5z" />
    <glyph glyph-name="numbersign" unicode="#" horiz-adv-x="475" 
d="M450 393q0 -10 -23 -10h-112l-12 -127h94q19 0 22 -12q0 -8 -27 -8h-90q-15 -151 -17 -168q-1 -12 -3.5 -18t-7.5 -4q-9 5 -8 24q4 26 14 166h-126q-4 -72 -16 -168q-1 -7 -1.5 -11t-2 -7t-3 -4t-4.5 0q-8 5 -8 24l16 166h-118q-15 0 -15 12q0 8 18 8h116l11 127h-95
q-18 0 -18 11q0 9 18 9h97q5 38 16 163q2 12 4.5 17t7.5 4q11 -4 8 -24q-2 -14 -4 -36t-5 -59t-6 -65h127q1 18 3.5 43l6 60t5.5 60q1 7 2 10.5t2.5 6.5t3 4t4.5 0q11 -4 8 -24l-15 -160h111q22 0 22 -10zM284 256l11 127h-128q-1 -15 -5.5 -58t-6.5 -69h129z" />
    <glyph glyph-name="dollar" unicode="$" horiz-adv-x="469" 
d="M168 61l-9 -71l-19 -3l9 73q-11 0 -16 1q-28 3 -47 15q-36 22 -36 61q0 45 40 83q33 30 84 46l1 7l-40 30.5l-41 31t-33 31t-24.5 36.5t-5.5 41.5t15 51.5q45 90 169 101l8 55l18 3l-7 -57q70 2 135 -23.5t90.5 -65t-5.5 -86.5q-32 -40 -88 -41t-87 44l7 4
q14 -25 47 -35.5t64.5 -0.5t40.5 37q13 55 -53 93t-155 40l-32 -250q23 -14 41 -34q47 0 94 -16.5t67 -50.5l-7 -3q-17 30 -61 46t-87 16q40 -50 19 -120t-80 -87q-3 0 -8 -1t-8 -2zM52 492q-12 -19 -12.5 -37t5.5 -30.5t24 -27.5t31.5 -23.5t41 -24.5l40.5 -24l29 238
q-117 -4 -159 -71zM95 215q-38 -35 -38 -78q0 -36 33 -56q18 -10 44 -13h15l25 190q-51 -16 -79 -43zM182 72q42 14 53.5 49.5t-2 73t-41.5 64.5l-23 -191q8 2 13 4z" />
    <glyph glyph-name="percent" unicode="%" horiz-adv-x="299" 
d="M259 626l-203 -575h-16l204 575h15zM76 621q39 15 51 -50q13 -71 -11 -148q-17 -55 -43 -65q-21 -8 -36 5q-29 21 -33.5 78.5t16 112t56.5 67.5zM40 381q8 -26 31 -17q26 10 40 58.5t13.5 100t-11.5 75.5q-10 27 -35 17q-26 -9 -38 -59.5t-10.5 -101.5t10.5 -73zM229 317
q39 15 51 -50q13 -71 -11 -148q-17 -55 -43 -65q-21 -8 -36 5q-29 21 -33.5 78.5t16 112t56.5 67.5zM193 77q8 -26 31 -17q26 10 40 58.5t13.5 100t-11.5 75.5q-10 27 -35 17q-26 -9 -38 -59.5t-10.5 -101.5t10.5 -73z" />
    <glyph glyph-name="ampersand" unicode="&#x26;" horiz-adv-x="521" 
d="M131 609q-47 -2 -78.5 -34t-47.5 -75l-5 2q17 45 50.5 77.5t83.5 34.5q45 83 112 84q53 0 83 -49q38 -63 -2 -145q-10 -21 -25 -41q-25 -35 -110 -98l128 -258q63 12 96.5 36t21.5 57q-30 32 -94 -20l-4 4q69 55 103 19q31 -38 21.5 -66.5t-42 -46.5t-84.5 -26
q28 -68 24 -113.5t-24.5 -68.5t-54.5 -31q-48 -10 -74 2q-24 12 9 41q31 -16 61.5 -18t53.5 15t25 59t-26 113q-118 -16 -218 17q-102 34 -96 100q4 43 58 95q40 40 108 92q-35 69 -44 116q-15 26 -17.5 63t8.5 63zM79 271q-95 -92 -17 -140q63 -39 190 -32q32 2 61 7
q-16 35 -59 118.5t-67 136.5q-54 -37 -108 -90zM295 467q42 62 12 130q-23 52 -69 65q-56 16 -98 -48q77 -12 84 -67q5 -41 -24 -71q-27 -27 -49 -7q2 -11 38 -98q78 55 106 96zM138 609l-2 -4q-10 -22 -7 -56t25 -48q23 -15 46 11q24 28 9 58q-15 32 -71 39z" />
    <glyph glyph-name="quotesingle" unicode="'" horiz-adv-x="73" 
d="M55 682q6 -19 -4.5 -41t-32.5 -26q-2 -1 -2 2l1 2q28 11 22 25q0 2 -4 2q-14 0 -17.5 13.5t3.5 22.5q7 11 18 11.5t16 -11.5z" />
    <glyph glyph-name="parenleft" unicode="(" horiz-adv-x="270" 
d="M249 599q76 22 83 22q6 0 7 -3q0 -5 -10 -6q-165 -33 -241 -203q-36 -80 -42 -172.5t27 -179.5t104 -133l6 -6q-2 -5 -7.5 -2t-17.5 12q-71 53 -110.5 129t-40.5 155.5t24 155.5t82.5 137.5t135.5 93.5z" />
    <glyph glyph-name="parenright" unicode=")" horiz-adv-x="275" 
d="M-53 -76q-76 -22 -83 -22q-6 0 -7 3q0 5 10 6q165 33 241 203q36 80 42 172.5t-27 179.5t-104 133l-6 6q2 5 7.5 2t17.5 -12q71 -53 110.5 -129t40.5 -155.5t-24 -155.5t-82.5 -137.5t-135.5 -93.5z" />
    <glyph glyph-name="asterisk" unicode="*" horiz-adv-x="205" 
d="M197 554q3 -19 -20 -22q-5 0 -34 6q-11 3 -33 1q11 -12 26 -25q11 -7 36 -28q11 -14 8 -26t-17 0q-7 4 -30 41q-19 27 -26 36q-3 -18 -3 -34q1 -12 1 -44q-5 -17 -21 -17q-13 0 -13 17q-1 4 19 46q10 20 13 34q-16 -1 -33 -8q-15 -7 -35 -12q-7 -1 -14 2q-6 3 -6 9
q-3 17 17 19q6 1 36 -4q17 -5 33 -3l-24 21q-18 13 -36 31q-12 14 -8 26q3 10 16 2q9 -5 31 -43q11 -19 25 -35q0 2 0.5 14t0.5 22q-2 35 1 45q4 16 19 16q13 0 16 -16q2 -13 -18 -46q-15 -24 -15 -36q6 0 45 14q10 4 23 6q8 2 13 -1t7 -8z" />
    <glyph glyph-name="plus" unicode="+" horiz-adv-x="381" 
d="M364 212q0 -7 -18 -7h-130l-13 -119q-1 -15 -6 -15q-1 0 -3 1q-5 4 -4 17l13 116h-138q-10 0 -12 7q-1 3 3.5 4t14.5 1h133l12 119q2 9 3.5 12.5t4.5 2.5q7 -4 5 -16l-5 -49.5l-7 -68.5h133q13 0 14 -5z" />
    <glyph glyph-name="comma" unicode="," horiz-adv-x="66" 
d="M52 96q6 -19 -4.5 -41t-32.5 -26q-3 -1 -2 2l1 2q28 11 22 25q0 2 -4 2q-14 0 -17.5 13.5t3.5 22.5q7 11 18 11.5t16 -11.5z" />
    <glyph glyph-name="hyphen" unicode="-" horiz-adv-x="288" 
d="M239 217q0 -7 -27.5 -16t-46.5 -9q-12 0 -47 4.5t-46 4.5q-16 0 -30 -8q0 -1 -2 -1t-2 2q-1 2 3 4.5t18 7.5q41 17 106 3q39 -8 68 8q2 2 3 2t3 -2z" />
    <glyph glyph-name="period" unicode="." horiz-adv-x="68" 
d="M51 98q5 -14 -3 -26t-21 -12t-17 13q-5 12 4 25q8 12 21 12q11 0 16 -12z" />
    <glyph glyph-name="slash" unicode="/" horiz-adv-x="268" 
d="M265 704l-245 -682h-16l246 682h15z" />
    <glyph glyph-name="zero" unicode="0" horiz-adv-x="341" 
d="M146 616q73 29 104 -75q31 -105 6 -263q-26 -159 -88 -217q-13 -12 -28 -18q-45 -16 -78 11q-63 46 -73 171t35 243.5t122 147.5zM68 95q20 -57 68 -39q43 17 71.5 85.5t37 150t4 159.5t-21.5 116q-10 27 -30.5 37t-45.5 -1q-42 -15 -68 -85t-32 -153.5t-1 -159.5
t18 -110z" />
    <glyph glyph-name="one" unicode="1" horiz-adv-x="268" 
d="M91 47l61 382q6 34 25 152q3 11 -1 11q-104 -31 -137 -80q-22 -31 -28.5 -63.5t9 -67t58.5 -59.5q-5 -8 -13 -9t-15 3t-13 10q-27 31 -33.5 65t2 62.5t28.5 63.5q36 61 140 106q15 7 19 -3q4 -16 -5 -193q-8 -159 -19 -273q-4 -46 -22 -71.5t-56 -35.5z" />
    <glyph glyph-name="two" unicode="2" horiz-adv-x="422" 
d="M69 495q17 44 53 78t81 44q47 9 85 -8.5t49 -63.5q9 -45 -7 -87t-51 -78.5t-72 -68l-80 -68t-65 -64.5q-31 -41 -28 -52q5 8 14.5 18.5t12.5 15.5q38 35 66 40q26 6 47 -7.5t27 -40.5q7 -32 31 -26q20 3 43 37q22 31 39 68q12 30 20 29q2 0 3 -3q-2 -8 -9 -25
q-13 -29 -20 -42.5t-22.5 -37.5t-33.5 -37t-41 -18q-29 -6 -46 3q-13 9 -22 34.5t-17 34.5q-15 22 -40.5 -7.5t-49.5 -72t-30 -43.5q-5 -1 -7.5 3t-1.5 12t2 14.5t3 13.5l2 8q10 36 30 60q24 38 96 111q81 89 84 93q37 39 59 94.5t12 103.5q-6 29 -28 40t-54 3
q-40 -8 -76.5 -39t-49.5 -69q-26 -72 43 -132q-11 -11 -21.5 -6t-19.5 18q-35 65 -10 120z" />
    <glyph glyph-name="three" unicode="3" horiz-adv-x="382" 
d="M282 573q25 -69 -53 -148l-69 -70q44 15 78 1q34 -13 46 -50q26 -72 -20.5 -146t-116.5 -99q-59 -21 -96 -3q-30 14 -44 53q-9 24 7.5 48.5t41.5 11.5q20 -14 16.5 -33t-22.5 -32q-12 -10 -8 -22q7 -17 30 -23q24 -5 55 7q59 21 90 105q23 58 19 116q-5 76 -65 54
q-22 -8 -37 -23q-21 -24 -28 -30q-4 -3 -9 5q-1 4 19 24t44 53q19 24 35.5 51.5t31 61.5t12.5 64.5t-24 49.5q-32 28 -78.5 -5.5t-54.5 -71.5q-13 -85 62 -130q-10 -12 -21.5 -9.5t-20.5 14.5q-45 59 -28 124q11 45 54.5 76.5t90 27.5t63.5 -52z" />
    <glyph glyph-name="four" unicode="4" horiz-adv-x="333" 
d="M66 610l63 -46q-28 -124 -65.5 -265t-45.5 -174q19 21 45.5 34t64.5 24t51 17q43 203 57 285q2 36 14 43q6 2 8 -8q4 -13 1 -42q-7 -69 -23 -180.5t-24 -194.5q-5 -56 -49 -55q-8 0 -16 2l26 135q-22 -9 -53.5 -20t-43.5 -16t-32 -18t-43 -34l12.5 72t12.5 74.5t10.5 66
t10.5 73.5t8 69t7.5 79t3.5 79z" />
    <glyph glyph-name="five" unicode="5" horiz-adv-x="342" 
d="M82 504l-33 -203h3q8 25 24 46q19 23 46 35q41 18 75 2q38 -17 52.5 -55t9.5 -76t-22 -73q-39 -83 -107 -112q-43 -19 -76 -9q-31 12 -44 42q-9 21 -6 42q4 18 23 27q28 11 38 -13q7 -14 2 -25q-4 -8 -19 -19q-13 -6 -5 -25q7 -15 24 -21t44 6q66 29 87 123q6 29 7.5 63
t-8.5 69.5t-35 43.5q-47 12 -88 -46q-7 -15 -33 -65q-2 -2 -5 -1.5t-4 3.5l37 271q7 27 8 27q15 6 49 11.5t62 19t52 44.5l5 -3q3 -6 -9 -31q-33 -58 -98 -86q-34 -15 -56 -12z" />
    <glyph glyph-name="six" unicode="6" horiz-adv-x="352" 
d="M77 67q-31 21 -53 76q-45 121 23 282q68 160 168 198q33 14 64 5t43 -41q13 -33 -12 -53q-21 -18 -39 1q-5 5 -8 13q-4 12 5 30.5t7 23.5q-4 8 -20 15q-10 2 -38 -7q-71 -28 -118 -158q-40 -111 -34 -184q8 41 24 72q23 41 58 56q86 33 110 -44q21 -68 -15 -168
q-34 -96 -90 -123q-38 -19 -75 6zM78 99q9 -21 25 -29q14 -8 30 -1q53 18 76 120q21 96 0 154q-21 52 -57 39q-55 -21 -76 -125q-21 -97 2 -158z" />
    <glyph glyph-name="seven" unicode="7" horiz-adv-x="272" 
d="M56 542q18 5 40.5 3t42.5 -7t39.5 4t30.5 37q3 5 5 31q1 17 10 18q11 1 10 -19q-1 -8 -4 -19q-56 -196 -89 -510q-31 -47 -47 -13q-15 35 1 100q56 233 114 386q-9 -30 -31 -43t-46 -11.5t-50 1.5t-44 -5q-21 -9 -22.5 -32.5t7.5 -44t20 -36.5q-12 -6 -20.5 1t-12 21.5
t-5 27.5t-1.5 21q1 23 16.5 52t35.5 37z" />
    <glyph glyph-name="eight" unicode="8" horiz-adv-x="339" 
d="M244 157q-32 -68 -101 -94q-49 -19 -81.5 -6.5t-48 40.5t-12.5 68.5t25 76.5q26 44 86 100q-59 45 -77 92q-21 54 11 108.5t85 74.5q39 17 72.5 5t48.5 -50q31 -83 -81 -193l45 -41q36 -38 43.5 -86.5t-15.5 -94.5zM176 292q-25 26 -53 44q-66 -63 -86 -122
q-17 -46 0 -90q12 -32 38 -44.5t52.5 -6.5t50.5 24.5t34 44.5q30 77 -36 150zM228 569q-25 62 -93 36q-37 -14 -51.5 -49t-5.5 -72.5t35 -62.5q14 -13 46 -34q103 93 69 182z" />
    <glyph glyph-name="nine" unicode="9" horiz-adv-x="373" 
d="M68 358q-27 69 5 152t99 109q44 15 77 -6q30 -20 47 -68q55 -144 -11 -302q-57 -141 -155 -178q-42 -17 -76 -9q-37 10 -53 53q-8 20 4 35t30 13.5t26 -20.5q5 -12 1 -24q-10 -27 -10 -32q12 -28 70 -6q80 31 123 159q37 116 21 202q-21 -122 -84 -144q-39 -15 -69 5.5
t-45 60.5zM186 610q-58 -21 -70 -134q-10 -97 9 -141q25 -66 71 -20q37 36 53 96q1 2 1 3q24 91 -2 158q-21 54 -62 38z" />
    <glyph glyph-name="colon" unicode=":" horiz-adv-x="103" 
d="M88 295q5 -14 -3 -26q-7 -12 -21 -12q-13 0 -17 13q-5 12 4 25q7 12 21 12q12 0 16 -12zM62 125q5 -14 -3 -26q-7 -12 -21 -12q-13 0 -17 13q-5 12 4 25q7 12 21 12q12 0 16 -12z" />
    <glyph glyph-name="semicolon" unicode=";" horiz-adv-x="120" 
d="M90 282q5 -14 -3 -26q-7 -12 -21 -12q-13 0 -17 13q-5 12 4 25q7 12 21 12q12 0 16 -12zM65 141q6 -19 -4.5 -41t-32.5 -26q-2 -1 -2 2l1 2q28 11 22 25q0 2 -4 2q-14 0 -17.5 13.5t3.5 22.5q7 11 18 11.5t16 -11.5z" />
    <glyph glyph-name="less" unicode="&#x3c;" horiz-adv-x="402" 
d="M4 220l356 152l-1 -17l-338 -145l346 -149l-9 -10l-354 152v17z" />
    <glyph glyph-name="equal" unicode="=" horiz-adv-x="424" 
d="M389 166q0 -7 -23 -7h-337q-14 0 -14 7q-1 4 4.5 6t17.5 2h335q15 0 17 -8zM410 240q1 -4 -4.5 -5.5t-17.5 -1.5h-337q-14 0 -15 7q0 7 23 7h335q15 0 16 -7z" />
    <glyph glyph-name="greater" unicode="&#x3e;" horiz-adv-x="425" 
d="M56 370l356 -152v-17l-354 -152l-9 10l346 149l-338 145z" />
    <glyph glyph-name="question" unicode="?" horiz-adv-x="305" 
d="M75 521q-23 20 -18 50.5t20 55.5t36 46q19 19 49 23.5t57.5 -5t47 -34t19.5 -58.5q0 -45 -29 -92t-72 -98.5t-59 -79.5q-47 -91 -37 -181l-16 -1q-12 97 41 192l33 55t39 67t25.5 62t11.5 68q-1 43 -24 68t-54.5 18.5t-54.5 -48.5q18 -25 25.5 -55t-4.5 -52
q-11 -16 -36 -1zM105 98q-5 12 -16 12q-13 0 -21 -12q-9 -13 -4 -25q4 -13 17 -13t21 12t3 26z" />
    <glyph glyph-name="at" unicode="@" horiz-adv-x="497" 
d="M326 84q39 40 66.5 115t35.5 139q7 65 -5.5 116t-44.5 73q22 -51 -10.5 -101t-104.5 -78t-158 -20l-9.5 -28.5t-10.5 -34t-9 -34t-8.5 -38l-4 -35t0.5 -36.5l7 -31.5t14 -31t24 -24.5q58 -46 132 -12l5 -6q-33 -13 -58 -13q-30 -3 -67 3q-56 13 -85.5 52.5t-32 92
t4.5 98.5t22 86q-61 13 -99.5 47t-49.5 84l7 1q10 -48 47.5 -82t95.5 -47q33 80 90.5 145.5t142.5 84.5q35 7 63.5 -2t41.5 -29q10 -3 19 -9q31 -21 44 -73t5 -118q-7 -67 -36 -143.5t-68 -115.5q-25 -24 -55 -10q-11 6 -18 16.5t-7.5 24.5t0.5 28t5.5 30.5t7.5 26.5t8 23
t5 14q-67 -84 -108 -63q-29 14 -25 62q4 57 48 85q22 14 52 14q29 1 34.5 -23t-2.5 -44q-1 -7 -4.5 -10.5t-5.5 0t-1 11.5q4 16 3 34.5t-17 19.5q-34 -1 -51 -52q-17 -47 -2 -72q5 -9 15 -8q17 2 42 30.5t34 45.5q5 10 20 -19q4 -7 4 -10q-1 -9 -10 -33l-17 -45t-11 -44.5
t8 -33.5q16 -18 41 7zM368 530q-59 20 -160 -71q-6 -5 -9 0q-2 2 1 4q95 86 161 78q-19 18 -48 22t-57 -9q-42 -22 -81.5 -86t-66.5 -134q85 -8 155 20t99.5 77t5.5 99z" />
    <glyph glyph-name="A" unicode="A" horiz-adv-x="374" 
d="M286 728q52 -2 21 -193q-8 -47 -38 -195q57 -109 42 -205q-10 -73 -37 -87q-22 -11 -44 6q-51 38 -22 229q12 69 20 109q-35 51 -75 86l-70 -181l-19 -53t-27.5 -72t-32.5 -56.5t-43 -35.5q-33 -10 -51 21q-27 36 0 119q1 3 3.5 4t4 -1t0.5 -5q-24 -76 0 -114
q17 -24 40 -17q20 7 40.5 37t32 58t26.5 70t18 48l71 184q-16 13 -34 23.5t-39.5 18t-37 -0.5t-18.5 -34q-2 -13 -10 -12.5t-6 13.5q7 43 29 50q45 14 120 -50q32 82 74 163q29 57 48 68q7 4 14 5zM231 404l19.5 86.5t18.5 85t12 64.5t5 52.5t-8 21.5q-14 -3 -47 -62
q-29 -56 -74 -166q39 -33 74 -82zM265 325q-48 -246 -17 -269q11 -7 21 -3q25 17 33 84q13 93 -37 188z" />
    <glyph glyph-name="B" unicode="B" horiz-adv-x="488" 
d="M179 744q74 13 146 -7.5t103 -78.5q25 -53 12 -105.5t-54.5 -95t-92.5 -55.5q27 -11 44 -23q68 -47 76 -107q25 -7 55 -18l-3 -8q-21 8 -51 17q4 -56 -41 -107.5t-117 -77t-139 -11.5q-55 10 -53 59q2 51 62 100q23 19 52 32q25 177 78 383q2 3 5.5 6.5t15 9t22.5 4.5
q3 -31 0.5 -67.5t-13.5 -81.5l-19 -75.5t-25 -86t-23 -76.5q74 22 159 6q2 80 -86 115q-12 5 -13 7q0 3 3 5q69 18 97.5 82.5t-1.5 141.5q-22 55 -79 80.5t-118 18.5q-79 -9 -146 -68.5t-93 -139.5q-14 -39 -20.5 -92.5t2.5 -108.5q11 -39 33.5 -51.5t41 6.5t19.5 61
q0 54 -21 98q-5 10 2 11q6 1 9 -7q21 -48 19 -103q-1 -49 -24.5 -70t-51 -6t-38.5 57q-10 60 -2 117.5t22 94.5q30 87 97 144.5t149 70.5zM187 103q-25 17 -10 146q-71 -36 -96 -92q-23 -52 14 -74q10 -6 24 -9q84 -18 168 49t90 148q-92 18 -161 -7q-30 -104 -29 -161z" />
    <glyph glyph-name="C" unicode="C" horiz-adv-x="391" 
d="M151 419q-13 -51 -19.5 -82.5t-13 -84t1.5 -94t30 -72.5q22 -32 74 -29q75 4 130 105q35 63 56 138h8q-27 -92 -55 -140q-60 -106 -138 -112q-60 -4 -98.5 23t-52.5 70t-15.5 98.5t6 101.5t18.5 86q-111 35 -131 153l10 1q20 -113 123 -145q71 220 209 259q38 10 64 -6
t34.5 -46t5.5 -64t-18 -59q-30 -51 -101 -80.5t-128 -20.5zM152 427q57 -8 123 19t98 76q23 31 19 86t-35 74q-16 9 -36.5 7.5t-34.5 -11.5q-67 -42 -134 -251z" />
    <glyph glyph-name="D" unicode="D" horiz-adv-x="440" 
d="M177 713q71 5 115 -34.5t55 -102t6.5 -128t-23.5 -120.5q54 -16 88 -55.5t44 -97.5h-9q-22 115 -124 145q-75 -230 -209 -258q-57 -11 -86 23q-33 45 -20.5 101t53.5 93q9 115 50 333q2 3 5.5 7t14.5 11t23 7q21 -126 -43 -328q78 34 146 27q8 31 11.5 46.5t11.5 54
t9 62.5t2 59t-6.5 57t-20 44.5t-36.5 33t-56 10.5q-81 0 -155 -51.5t-111 -127.5q-19 -39 -33.5 -97t-8.5 -101q5 -39 26 -55t43 0t29 59q7 46 -10 101q-3 9 3 10.5t9 -8.5q14 -47 6 -105q-7 -49 -33 -66.5t-51 1t-31 61.5q-6 47 10 108.5t35 99.5q41 82 114.5 129.5
t156.5 51.5zM260 329q-71 7 -148 -32q-16 -46 -22.5 -88t-4.5 -61l2 -20q-28 16 -20 140q-23 -23 -36.5 -52.5t-12.5 -64t22 -61.5q14 -18 38 -21.5t49 8.5q66 33 133 252z" />
    <glyph glyph-name="E" unicode="E" horiz-adv-x="408" 
d="M345 646q-17 -23 -49.5 -41t-63.5 -23q-16 -52 -6 -101q26 1 51.5 -8t35.5 -28q10 -18 0 -24q-22 -15 -53 4t-41 43q-47 -11 -83.5 -54t-53.5 -96.5t-15.5 -110t24.5 -93.5q20 -32 57 -41q38 -9 75.5 3t65 34.5t56 60.5t44 65.5l34.5 63.5h12q-52 -100 -94.5 -150
t-89.5 -75q-43 -24 -103 -14q-51 8 -86 35t-48.5 64.5t-14.5 80.5t16 85t43 76.5t67 55.5t88 22q-16 51 -10 99q-179 10 -205 126h9q31 -112 197 -118q6 48 37 90.5t74 36.5q30 -4 39 -24.5t-9 -43.5zM234 589q67 15 104 60q16 20 7.5 36t-31.5 8q-24 -8 -47.5 -41
t-32.5 -63zM229 469q7 -20 32 -36t45 -8q7 4 1 18q-10 17 -33 23t-45 3z" />
    <glyph glyph-name="F" unicode="F" horiz-adv-x="455" 
d="M-118 673q0 86 141 97q65 4 195 -9q22 -2 62.5 -7t54.5 -6q103 -13 159.5 -18t120.5 -2t92 21q10 5 14 16.5t-3 19.5q-4 4 -8 3q-3 0 -12 -10q-2 -4 -5.5 -4.5t-4.5 2.5t2 7q8 13 19 15q7 2 15 -6q11 -14 6 -28.5t-18 -22.5q-28 -20 -96 -23t-119.5 2t-162.5 18
q-20 3 -65 7q7 -56 -6.5 -172.5t-32.5 -182.5q106 -4 158 24l5 -5q-56 -31 -166 -26q-18 -58 -26 -75q71 -83 91 -166q20 -80 -21 -89q-26 -5 -51 11.5t-41 40.5q-20 29 -26 78t-3.5 78t8.5 79q-48 46 -107 68q-7 2 2 4h10q82 -14 104 -16q3 18 12 95.5t18.5 149.5t17.5 111
q-111 13 -192 8q-131 -10 -131 -88q0 -8 -5 -7.5t-5 8.5zM188 110q41 -61 80 -50q35 12 17 80q-23 86 -88 159q-46 -132 -9 -189zM165 388l-79 12q47 -25 74 -50q1 12 5 38z" />
    <glyph glyph-name="G" unicode="G" horiz-adv-x="425" 
d="M336 446q-31 -40 -40 -67q-12 -34 -50.5 -66.5t-82.5 -40.5t-78 29q-50 62 30 243q156 -14 210 50q24 26 23.5 66t-31.5 61q-20 14 -54 9q-120 -14 -202 -168q-90 36 -95 119h-8q6 -89 100 -125q-15 -31 -25 -67.5t-14 -79t12.5 -79t54.5 -54.5q108 -52 205 76
q-11 -37 -16 -82q-85 -34 -123 -93q-11 -19 -16 -43t4 -45.5t34 -25.5q47 -10 86 44t76 175q58 14 109 15l1 8q-52 -3 -106 -13q13 47 28 120q-6 24 -32 34zM118 550q75 146 137 169q37 14 61.5 -7t23.5 -54.5t-23 -61.5q-23 -24 -58 -36t-69.5 -11.5t-71.5 1.5zM274 260
q-13 -203 -96 -189q-18 3 -26.5 15t-7.5 28.5t5 31.5t11 27q35 54 114 87z" />
    <glyph glyph-name="H" unicode="H" horiz-adv-x="560" 
d="M214 279q77 -14 131 -62q-2 48 1.5 100t16 115.5t33 115t59 93t88.5 54.5q38 11 65.5 -3.5t38 -42.5t8.5 -62t-18 -61q-31 -54 -94 -82t-128 -25q-28 -128 -40 -231q20 -23 28.5 -65.5t-11.5 -47.5q-19 -2 -31 28t-14.5 57t-2.5 48q-57 50 -132 63q-2 -11 -8.5 -35.5
t-7.5 -30.5q-42 -161 -116 -189q-36 -13 -61.5 4.5t-33.5 50.5t-4.5 71t20.5 64q55 80 170 73l60 368q-83 -18 -129.5 -59t-49.5 -125h-13q2 44 17.5 78t37.5 55t56.5 36t63.5 22.5t71 14.5q-3 -111 -71 -390zM416 427q58 -2 111 18t87.5 64.5t27.5 103.5q-4 34 -21.5 55.5
t-44.5 19.5q-21 -2 -39 -11.5t-31.5 -22t-26 -34t-19.5 -37.5t-15.5 -43.5t-12 -41t-9.5 -40t-7 -31.5zM169 272q-49 3 -92.5 -15.5t-67.5 -53.5q-22 -30 -23 -81.5t24 -84.5t69 -14q24 10 41.5 44t24 63t14.5 80t10 62zM375 174q-1 -5 -1.5 -19t0 -33t5 -31.5t12.5 -9.5
q14 9 4.5 44.5t-20.5 48.5z" />
    <glyph glyph-name="I" unicode="I" horiz-adv-x="376" 
d="M367 518v-7q-34 14 -68 45q2 -127 -25 -236q28 -2 40 -4l-2 -8l-40 4q-39 -165 -148 -234q-33 -21 -71 -21q-43 -1 -65.5 22.5t-15.5 65.5q6 36 30 68q25 35 66 61q64 41 151 47q31 119 52 267q-8 11 -17.5 36t-11 47t13.5 26q14 1 24 -15t14 -41t5.5 -44.5t0.5 -32.5
q39 -35 67 -46zM204 270q8 28 11 42q-141 -14 -206 -104q-25 -37 -29 -65q-12 -77 73 -77q22 0 40.5 9t34 29t26 36.5t22 46.5t15.5 42.5zM271 599q4 7 3.5 51t-15.5 39q-10 -5 -8 -24.5t8 -38t12 -27.5z" />
    <glyph glyph-name="J" unicode="J" horiz-adv-x="323" 
d="M229 308q-20 -79 -38 -130t-49.5 -93t-71.5 -50t-66.5 11.5t-29 51.5t11.5 67q28 57 82.5 94.5t118.5 50.5l32.5 199t28.5 175q-174 -37 -182 -185h-10q7 180 246 202q-4 -110 -71 -384q36 2 67 -1v-9q-32 3 -69 1zM184 300q-64 -17 -114.5 -53t-74.5 -87
q-12 -31 -10.5 -60t24 -46.5t58.5 -10.5q25 5 45 28t33.5 62t22 77.5t16.5 89.5z" />
    <glyph glyph-name="K" unicode="K" horiz-adv-x="518" 
d="M236 374q38 36 91 100.5t102.5 117.5t101.5 85q55 36 70 9q7 -10 3.5 -23.5t-13.5 -19.5q-12 -12 -29 2q-3 4 -3 7t2.5 3.5t6.5 -2.5q9 -11 19 -4q7 6 9.5 15.5t-3.5 18.5q-11 16 -56 -12q-54 -34 -105 -89.5t-102 -118.5t-92 -99q34 9 57 -7t33.5 -52t16 -73t11 -81
t11.5 -65q7 -23 15.5 -32t18.5 -4t18.5 14t19.5 25q49 74 99 211h8q-41 -121 -99 -215q-14 -22 -33 -41q-38 -28 -73 1q-24 21 -36.5 74.5t-16 103t-17.5 88.5t-42 38q-13 -62 -27 -111q-8 -31 -18.5 -59.5t-28 -61.5t-42.5 -55.5t-54 -28.5q-40 -8 -66 11.5t-28 51.5t11 67
q29 59 95 101q3 -6 4 -7q-62 -39 -91 -99q-12 -31 -10.5 -59.5t24 -46.5t58.5 -11q14 4 26.5 13t23 24.5t18.5 29t15.5 37l12 37t10 41l7.5 37t7 36t5 28.5q20 110 56 357q-176 -35 -181 -183l-10 -1q0 42 14.5 75.5t37 54.5t56.5 36.5t66 23.5t72 13q-1 -88 -56 -326z" />
    <glyph glyph-name="L" unicode="L" horiz-adv-x="462" 
d="M154 189l-16 -38q21 -8 59 -27.5t63.5 -29.5t58.5 -16.5t62 6t54 43.5l24 -25q-27 -33 -59 -44.5t-68 -2.5t-65.5 22.5t-70 35.5t-63.5 31q-43 -82 -95 -82q-27 4 -37 24.5t1 45.5q29 54 111 29q2 6 4.5 17.5t3.5 15.5q12 56 24 123.5t19.5 116l20 129l18.5 121.5
q-84 -17 -132.5 -59t-48.5 -126h-10q0 86 49.5 130t134.5 63q24 5 62 10q-4 -118 -32 -259t-72 -254zM110 153q-74 23 -100 -26q-10 -20 -0.5 -37.5t28.5 -18.5q29 -1 45.5 22.5t26.5 59.5z" />
    <glyph glyph-name="M" unicode="M" horiz-adv-x="565" 
d="M-6 127q-8 133 44 416q3 3 7.5 7t18.5 10.5t26 6.5q13 -84 -10 -190q67 163 134 190q60 24 60 -55q0 -41 -17 -127q45 114 100 211t98 113q44 19 50 -50q7 -72 -40 -325q-10 -52 -12 -65q2 -2 4 -4.5l4.5 -5.5t3.5 -5q40 -59 33 -174q-2 -49 -13.5 -86.5t-29.5 -47.5
q-19 -11 -44 7q-59 48 -8 328q-27 0 -59 -22l-5 8q36 25 65 23q7 38 17 87.5l18 86.5l16 77t12 68t5.5 50.5t-2.5 32.5t-13 8q-46 -16 -108.5 -137.5t-101.5 -233.5q-11 -52 -16 -82.5t-8.5 -67t3 -54.5t22.5 -21l-2 -7q-88 9 -60 191q4 20 37 172q21 97 1 99q-4 1 -8 -1
q-85 -29 -165 -292q-15 -53 -20.5 -111.5t2.5 -81.5q3 -9 8 -13q-21 -7 -33 17t-14 50zM450 258q-12 -66 -19 -108t-12 -88t-2 -72.5t14 -35.5q9 -7 19 -1q33 18 40 128q5 110 -33 169q-4 6 -7 8z" />
    <glyph glyph-name="N" unicode="N" horiz-adv-x="402" 
d="M96 608q16 -102 -13 -238q43 113 100 216.5t101 119.5q44 19 51 -50q7 -76 -44 -342q-1 -7 -4 -20q-3 -18 -5 -27q54 -51 47 -190q-2 -49 -14.5 -86.5t-30.5 -48.5q-13 -7 -36 3q-39 21 -39 107.5t24 226.5q-29 -3 -58 -22l-6 6q37 24 66 24q7 38 17 87l17.5 86.5
l15.5 77.5t12.5 68t6 50.5t-2.5 32.5t-13 8q-36 -13 -86.5 -99.5t-86 -172t-50.5 -136.5q-26 -87 -39 -224q-60 38 20 514q23 29 50 29zM281 256l-19.5 -108.5t-12.5 -89t-2 -72t13 -34.5q11 -8 20 -3q35 22 40 128q4 62 -4.5 102.5t-34.5 76.5z" />
    <glyph glyph-name="O" unicode="O" horiz-adv-x="395" 
d="M118 55q-39 15 -59.5 60.5t-21.5 105t4 111t15 97.5q-87 34 -103 152l9 1q14 -113 95 -145q56 220 163 259q24 8 43.5 -3t29.5 -33q8 -4 13 -10q22 -24 31 -83.5t4 -135.5q-12 -170 -69 -284q-45 -88 -107 -97q-24 -3 -47 5zM108 421l-7.5 -37t-8.5 -44.5l-7 -44
t-5.5 -48.5t-1 -44t3 -45t10.5 -37.5t18 -33.5q20 -25 43 -28.5t44 11.5t38 35.5t30 45.5q56 115 68 280t-34 216q15 -58 -7.5 -114.5t-73 -88.5t-110.5 -23zM289 651q-39 22 -108 -81q-5 -6 -7 0q0 3 1 5q66 100 109 87q-13 21 -32 26.5t-38 -9.5q-55 -47 -104 -250
q59 -8 107.5 23.5t68.5 86.5t3 112z" />
    <glyph glyph-name="P" unicode="P" horiz-adv-x="419" 
d="M311 450q43 161 11 230q-20 40 -66 37q-78 -5 -127 -144q-4 -69 -53 -301q53 -49 46 -168q-2 -44 -13.5 -77t-30.5 -42q-20 -9 -42 7q-58 41 -9 290q-28 0 -59 -19l-4 6q35 23 65 21q7 34 17 77.5l17.5 76.5l15.5 68.5t12.5 60.5t6 45t-2.5 29t-13 7q-29 -7 -80 -77
q-7 -9 -9.5 -6.5t2.5 11.5q50 67 83 79q29 10 41 -6.5t11 -59.5q46 118 126 130q54 8 84.5 -21t35.5 -79t0.5 -96t-15.5 -85q41 -12 67 -41.5t31 -70.5l-7 -2q-12 83 -93 107q-54 -163 -154 -192q-24 -6 -45 4.5t-29 32.5q-17 46 11 94q23 39 73.5 59.5t95.5 14.5zM310 444
q-48 4 -93 -14t-69 -56q-27 -44 -10 -90q13 -32 43 -32q18 0 29 7q50 33 100 185zM75 263q-16 -77 -24.5 -126t-9 -91.5t12.5 -52.5q10 -7 20 -1q35 18 39 112q5 102 -38 159z" />
    <glyph glyph-name="Q" unicode="Q" horiz-adv-x="450" 
d="M367 694q34 -16 51 -65q15 -42 9 -105q-10 -103 -64.5 -200t-136.5 -173q10 -8 51.5 -46t65 -57t62 -45t71.5 -36t63 -5q-9 -22 -28.5 -26t-46.5 9.5t-54.5 31.5t-60.5 47l-54.5 49l-47 45.5l-27.5 27.5q-101 -91 -174 -91q-37 0 -40 42q-4 45 30 84q25 28 57 32
q48 7 126 -56q81 75 135.5 171t64.5 196q6 58 -8 102q-14 40 -50.5 58t-75.5 5q-34 -11 -61.5 -33t-46.5 -53t-28.5 -52.5t-21.5 -53.5q54 -12 106.5 -47.5t54.5 -80.5q2 -39 -27 -65t-65.5 -27.5t-69.5 13.5q-106 63 -66 211q-109 12 -180 -47l-10 6q80 66 192 52
q8 31 34 70t67.5 76.5t92.5 48.5t111 -13zM125 487q-38 -139 1 -182q19 -16 46.5 -19t51.5 5.5t40.5 29.5t14.5 48q-3 42 -53.5 75t-100.5 43zM105 189q-36 -22 -60 -75q-20 -47 1 -50q70 0 167 87l-20 15.5t-20.5 14t-23.5 11.5t-22 3t-22 -6z" />
    <glyph glyph-name="R" unicode="R" horiz-adv-x="438" 
d="M22 640q46 67 83 79q34 13 44.5 -13.5t4.5 -89.5q39 87 113 98q117 16 129 -101q10 -98 -48 -231q-34 -78 -68 -110q23 -30 69 -108q25 -44 47 -76t51.5 -63t57.5 -45t63.5 -12.5t72.5 23.5q-20 -69 -82 -66q-25 1 -51.5 18t-45 35.5t-45.5 58t-38.5 58.5l-37.5 64
q-44 77 -68 107q-49 -41 -86 -35q-28 4 -35.5 30t8.5 48q17 29 50 20q27 -8 51 -35q46 76 74 184.5t3 177.5q-18 52 -70 50q-72 -4 -115 -110q-6 -52 -50 -266q8 -6 12 -13q40 -53 34 -154q-7 -98 -44 -120q-20 -9 -44 7q-58 42 -7 291q-25 0 -59 -19l-5 6q37 22 66 22
l17 76.5l17.5 76l15.5 68t12 60t5.5 45t-2.5 29.5t-13 7q-31 -9 -80 -77q-7 -10 -9.5 -7t3.5 12zM101 321q-12 -58 -19 -96t-12.5 -78.5t-2.5 -63.5t14 -31q9 -7 20 -2q16 9 26.5 40.5t12.5 73.5q6 97 -32 148q-2 4 -7 9zM257 286q-24 29 -49 35q-26 6 -42 -18
q-13 -18 -7 -39.5t29 -23.5q18 -3 37.5 12t31.5 34z" />
    <glyph glyph-name="S" unicode="S" horiz-adv-x="522" 
d="M300 490l8 4q28 -49 99.5 -49.5t89.5 51.5q11 45 -24.5 84t-98 58t-132 23.5t-132.5 -18.5t-92 -70q-16 -26 -16.5 -48.5t12.5 -41t33 -35t48 -33l54.5 -31.5t54.5 -35t46 -40q59 -1 117 -21.5t83 -62.5l-8 -4q-22 38 -76 57.5t-108 20.5q31 -46 31.5 -98t-30 -99
t-77.5 -60q-27 -7 -63 -4q-34 3 -58 18q-45 27 -45 76q0 57 49 103q46 41 114 60q-18 16 -50.5 39.5l-53 39t-43.5 40t-32 46.5t-8 52.5t19 64.5q55 108 199 124q119 14 225 -37q91 -43 103 -104q7 -38 -21 -74q-40 -50 -109.5 -51t-107.5 55zM187 288q-74 -20 -116 -59
q-46 -43 -46 -97q0 -46 40 -69q23 -13 55 -16t60 4q53 17 67 63t-5 94t-55 80z" />
    <glyph glyph-name="T" unicode="T" horiz-adv-x="481" 
d="M284 690q4 -72 -53 -335q3 -2 7 -7t6 -7q39 -53 32 -154q-2 -43 -13.5 -76.5t-29.5 -43.5q-20 -9 -43 7q-58 42 -9 291q-25 0 -59 -19l-4 6q37 22 65 22q9 44 26.5 117t28 122.5t13.5 79.5q-12 1 -55 5t-72.5 5.5t-74.5 2.5t-76 -4.5t-61.5 -15t-45.5 -30t-14 -48.5
q0 -5 -2.5 -7t-5 0t-2.5 7q-4 46 31.5 72t98.5 31.5t141.5 2.5t164 -11t161 -13t137 -1t88.5 23q13 9 13 28q1 12 -9 12h-2q-5 0 -11 -10q-5 -8 -10 -4q-3 2 1 8q7 14 18 16q15 2 20 -9.5t0.5 -26t-14.5 -21.5q-40 -29 -152.5 -29.5t-233.5 14.5zM229 345q-12 -56 -19 -95.5
t-12 -79t-2 -63t13 -31.5q9 -7 19 -2q35 19 40 114q6 97 -32 148q-2 4 -7 9z" />
    <glyph glyph-name="U" unicode="U" horiz-adv-x="447" 
d="M240 278q7 54 25 121q-49 -110 -112 -210.5t-106 -114.5q-44 -15 -49 48q-5 71 54 318q2 9 7 27q7 31 11 47q-51 59 -35 191q1 10 2.5 19l4 24t6.5 26.5l8.5 24.5t11.5 21.5t14.5 14.5t18 5.5t22.5 -7.5q67 -41 -2 -333q23 -1 58 17l6 -7q-39 -22 -66 -20
q-73 -299 -81 -350q-8 -57 4 -56q37 10 92.5 95t95 167.5t57.5 133.5q30 87 51 221q52 -37 -30 -429q-22 -94 -23 -163q-1 -22 4.5 -31.5t16 -6t21.5 11.5t23 20q30 29 59 78.5t43 84.5l14 34h9q-51 -138 -121 -206q-64 -64 -94 -31q-38 39 -20 215zM73 525l26 109t17 86
t7 76t-14 31q-33 19 -51 -50q-6 -22 -14 -72q-13 -129 29 -180z" />
    <glyph glyph-name="V" unicode="V" horiz-adv-x="347" 
d="M85 48q-49 -23 -58 58q-8 65 17 289l5 42q-32 23 -49.5 73.5t-15.5 103t20 86.5q23 42 58 20q61 -35 38 -289q34 9 55 23l5 -5q-29 -23 -62 -28q-3 -31 -8.5 -78t-9.5 -78t-7.5 -68.5t-5 -61t-1.5 -44t3.5 -28.5t10.5 -5q33 17 59 61q31 57 79 198l36.5 102.5t41.5 102.5
t53 101.5t61.5 80t76.5 59.5t88 20q18 0 31 -9t15 -25q1 -15 -10.5 -29.5t-26.5 -9.5q-11 4 -12 18.5t7 18.5q7 6 8.5 1.5t-3.5 -7.5q-6 -4 -4.5 -12.5t7.5 -10.5q9 -5 17.5 7.5t7.5 22.5q-1 12 -13.5 20t-23.5 7q-39 -1 -75 -19t-63.5 -41.5t-56 -66t-47 -75.5t-41.5 -88.5
t-34.5 -86l-31.5 -86.5q-5 -13 -15 -42l-15.5 -45t-14 -38t-17 -39.5t-17.5 -32.5q-32 -53 -62 -67zM49 449q26 216 1 257q-14 29 -35 -7q-31 -57 -19 -136.5t53 -113.5z" />
    <glyph glyph-name="W" unicode="W" horiz-adv-x="551" 
d="M96 387l-2 -21q-2 -21 -2.5 -31t-2 -35t-1 -40t1 -38t4 -38t8 -30.5t12 -24.5t17.5 -12q19 -6 40 21q22 30 53 153q26 109 48 147q32 52 45 5q5 -19 -4 -119t-7.5 -179.5t31.5 -72.5q15 3 29 20q20 24 37 74q16 50 41 179q14 74 29 129t40 116t62.5 98.5t85.5 46.5
q13 3 14 -1q1 -2 -3 -5q-4 -1 -9 -2q-46 -9 -82.5 -45.5t-60.5 -97.5t-38.5 -114t-28.5 -126q-22 -119 -43 -181q-18 -53 -37 -76q-18 -20 -33 -24q-116 -34 -61 344q2 13 2 14q0 20 -8 1q-18 -33 -42 -133q-28 -124 -58 -161q-21 -24 -45 -21q-98 10 -86 276q-93 5 -128 91
l8 3q32 -78 120 -86q16 185 112 237q41 22 69.5 -4.5t33.5 -72.5q8 -58 -46 -108t-115 -56zM96 395q57 7 109 55t42 107q-4 26 -16.5 44.5t-32.5 24t-47 -14.5q-43 -42 -55 -216z" />
    <glyph glyph-name="X" unicode="X" horiz-adv-x="438" 
d="M466 685q21 -25 -2.5 -69t-83.5 -108q-17 -20 -137 -137q42 -268 66 -310q10 -18 19 -11q24 18 46 101q2 11 5 11q5 1 2 -12q-18 -79 -48 -105q-47 -41 -89 89q-22 69 -45 195l-59.5 -59.5l-54.5 -58t-48.5 -56.5t-36.5 -52t-24.5 -49t-7 -42.5t11.5 -35.5q5 -7 -2 -9
q-5 -1 -8 4q-12 17 -12.5 39t7.5 44.5t26 51t38.5 54.5t50.5 58.5l57 59.5l62 61l-18 99q-68 30 -106 138q-31 98 -4 128q15 17 43 10q71 -18 116 -267q24 9 48 39l6 -4q-26 -34 -53 -43q6 -23 10 -58q105 103 133 133q116 123 86 165q-5 4 -2 7.5t8 -1.5zM179 448
q-21 122 -39.5 187t-43.5 70q-11 2 -17 -6q-23 -31 4 -120q15 -42 41 -80.5t55 -50.5z" />
    <glyph glyph-name="Y" unicode="Y" horiz-adv-x="419" 
d="M89 502q-7 -37 -9.5 -58t-4.5 -58t5.5 -65.5t24.5 -49.5q20 -23 54 -17q72 12 108 144q32 218 77 231q15 4 32 -11q27 -20 52 -102q1 -6 0 -10t-3.5 -2t-4.5 10q-21 77 -50 99q-11 7 -19 -8.5t-14.5 -55.5t-11 -81l-11.5 -105t-13 -108q31 -18 52 -43l-6 -5
q-23 28 -49 39q-34 -254 -104 -273q-28 -7 -44 9q-13 14 -13 50t12 77q34 115 100 143q3 28 14 112q-18 -49 -41 -79t-62 -39q-51 -12 -82 14.5t-38.5 74t-6 92t9.5 80.5q-77 20 -99 100h8q23 -74 92 -93q40 156 132 189q33 12 55.5 -5t28.5 -50q10 -63 -45.5 -106.5
t-125.5 -39.5zM92 508q65 -3 117.5 39t43.5 100q-4 20 -14 33.5t-26.5 19.5t-38.5 -8q-47 -27 -82 -184zM248 242q-58 -28 -90 -137q-12 -39 -12.5 -71.5t11.5 -47.5q9 -9 20 -5q23 7 38 71t33 190z" />
    <glyph glyph-name="Z" unicode="Z" horiz-adv-x="449" 
d="M348 690q-43 0 -87 -6.5t-92 -21t-82.5 -45.5t-42.5 -73l-14 1q43 165 375 151q-48 -195 -136 -355q70 -42 95 -8l7 -5q-12 -17 -30 -19.5t-35.5 4.5t-41.5 21q-75 -138 -157 -215q32 -2 74.5 -23t76 -43t76.5 -34.5t79 -0.5l-11 -28q-37 -12 -80.5 4t-76.5 42.5t-75 50
t-74 23.5q-2 -2 -18 -16q-35 -31 -63 -30q-10 1 -10.5 3t5.5 9q25 27 56 38q82 103 152 247q-20 13 -33 19t-31 4.5t-26 -20.5l-8 4q21 55 102 2q17 35 36 81.5l29.5 73.5t33 89.5t27.5 75.5z" />
    <glyph glyph-name="bracketleft" unicode="[" horiz-adv-x="273" 
d="M1 -44q25 112 48 239.5l48 279.5t41 239q28 -6 74 -7q17 -1 45 2q17 2 17 0q5 -12 -49 -12q-31 0 -47 3q-21 -64 -66 -309q-64 -341 -68 -422q36 2 48 1q23 0 46 -5q18 -5 18 -8q0 -2 -4 -2q-8 0 -21 2q-12 2 -37 2q-88 0 -93 -3z" />
    <glyph glyph-name="backslash" unicode="\" horiz-adv-x="261" 
d="M18 697l245 -682h-15l-246 682h16z" />
    <glyph glyph-name="bracketright" unicode="]" horiz-adv-x="280" 
d="M277 701q-25 -112 -48 -239.5l-48 -279.5t-41 -239q-28 6 -74 7q-17 1 -45 -2q-17 -2 -17 0q-4 12 49 12q31 0 47 -3q21 65 66 309q64 341 68 422q-36 -2 -48 -1q-23 0 -46 5q-18 4 -18 8q0 2 4 2q8 0 21 -2q12 -2 37 -2q88 0 93 3z" />
    <glyph glyph-name="asciicircum" unicode="^" horiz-adv-x="273" 
d="M20 485l109 215h15l113 -209h-31l-89 163l-83 -169h-34z" />
    <glyph glyph-name="underscore" unicode="_" horiz-adv-x="449" 
d="M418 57l6 -17h-409l-6 17h409z" />
    <glyph glyph-name="grave" unicode="`" horiz-adv-x="150" 
d="M13 625h34l78 -77l-33 -1z" />
    <glyph glyph-name="a" unicode="a" horiz-adv-x="307" 
d="M198 80q45 40 115 200q3 8 9 20h10q-1 -2 -16.5 -36.5l-24.5 -53l-25 -49.5t-31.5 -53t-30.5 -35q-29 -25 -62 -8q-13 7 -20 20t-7 29t1.5 31.5t8 34l10.5 30.5t10 26t7 15q-81 -91 -127 -67q-31 17 -26 70q5 61 52 93q30 21 69 19q53 -2 32 -79q-3 -13 -8.5 -13t-3.5 15
q1 4 3 15t2.5 17t-0.5 14t-5.5 12t-12.5 5q-39 1 -62 -56q-21 -51 -7 -81q6 -13 18 -12q19 1 48.5 31.5t42.5 50.5q6 10 21 -20q5 -10 5 -14q-1 -11 -12.5 -37.5l-22 -50t-16 -50.5t6.5 -39q18 -23 49 6z" />
    <glyph glyph-name="b" unicode="b" horiz-adv-x="284" 
d="M33 247q3 -26 18 -6q5 6 15 21q40 60 66 69q16 5 32 -4q38 -26 31.5 -75.5t-42.5 -88.5q40 -6 88 33q46 43 62 104h10q-16 -67 -66 -110q-53 -46 -101 -35q-13 -11 -32 -18.5t-38 -9.5t-34 7t-18 30q-3 15 6.5 27.5t23.5 16.5q30 9 59 -23q18 25 29 53t7.5 50.5
t-25.5 25.5q-7 1 -25 -20.5t-33 -43.5l-15 -23q-28 -25 -39 28q-12 67 5 163.5t66.5 181.5t117.5 101q42 8 59 -14q15 -18 12 -58q-4 -35 -25 -83q-31 -66 -85 -125.5t-119 -89.5q-8 -42 -10 -84zM201 679q-49 -47 -92.5 -143t-63.5 -194q62 30 113 87t81 121q19 43 24 80
q3 36 -10 52q-12 11 -26 9t-26 -12zM107 178q-26 29 -51 21q-28 -9 -23 -34q6 -22 22.5 -19t29.5 12t22 20z" />
    <glyph glyph-name="c" unicode="c" horiz-adv-x="227" 
d="M15 89q-35 21 -41 67.5t10.5 92.5t47 82t61.5 38q21 1 32.5 -7.5t15.5 -33.5t-9 -72q-3 -13 -7 -14q-2 -1 -3 3t1 14q4 17 5.5 31t1.5 31.5t-8 25t-23 2.5q-17 -8 -44 -64.5t-38.5 -109t5.5 -74.5q22 -16 54 -1q37 18 86.5 81.5t82.5 118.5h10l-39.5 -59l-38.5 -53
t-49 -57.5t-45 -35.5q-14 -9 -34.5 -11t-33.5 5z" />
    <glyph glyph-name="d" unicode="d" horiz-adv-x="326" 
d="M0 144q12 -9 26 -9t25 5t25.5 18.5t23.5 23.5t23 27q1 -13 4.5 -29t9 -36.5t14.5 -36t20.5 -26t27.5 -9t34 17.5q29 26 59 78.5t47 92t15 39.5h-10l-6 -16l-18 -40t-25 -51.5t-32.5 -53.5t-36.5 -42q-46 -43 -59 43q-9 59 -1 117q49 36 93 95.5t73 125.5q30 66 36 118
q6 40 -10 70t-57 15q-66 -24 -115 -137t-61 -241q-14 20 -41 25q-27 4 -55.5 -15.5t-45.5 -49t-14.5 -64t31.5 -55.5zM302 659q32 29 47.5 2.5t9.5 -64.5q-6 -53 -35 -116q-65 -142 -156 -212q18 115 58.5 234t75.5 156zM87 313q12 1 22.5 -8.5t14.5 -24.5q-3 -28 -1 -59
q-51 -57 -71 -70q-27 -16 -45 1q-13 19 0 54t39 70t41 37z" />
    <glyph glyph-name="e" unicode="e" horiz-adv-x="201" 
d="M216 300h7q-32 -86 -75 -145.5t-85 -53.5t-61.5 44.5t-15 82.5t30.5 83.5t65 48.5q18 4 32.5 -3.5t9.5 -28.5q-4 -24 -28 -40.5t-44 -0.5q-18 -46 -16.5 -105.5t27.5 -68.5q23 -7 47.5 11t46.5 56.5t33.5 62t25.5 57.5zM92 348q-20 -11 -35 -53q16 -13 36.5 0.5
t22.5 33.5q1 13 -6.5 18.5t-17.5 0.5z" />
    <glyph glyph-name="f" unicode="f" horiz-adv-x="191" 
d="M20 123q-24 74 -16.5 166t31 175t67.5 145t94 76q38 11 58.5 -9t16.5 -58q-5 -37 -24 -78q-27 -60 -77 -115t-110 -84q-17 -88 -18 -145q137 39 165 104h9q-26 -71 -174 -113v-2q32 -13 70.5 -60t42.5 -86q2 -22 -8.5 -33.5t-30.5 -7.5q-31 5 -57.5 44.5t-38.5 80.5z
M197 666q-39 -40 -76 -127t-59 -188q57 29 103.5 82t73.5 111q20 41 23 75q4 33 -18.5 51.5t-46.5 -4.5zM42 176q2 -50 40 -121q36 -64 55 -47q2 2 4 5q19 33 -21.5 90t-77.5 73z" />
    <glyph glyph-name="g" unicode="g" horiz-adv-x="293" 
d="M123 206q-11 -7 -31 -29t-37.5 -34t-32.5 -6q-31 12 -43 40.5t-4 58t26.5 57t47.5 37.5t59 -1q34 -14 28 -67q-3 -28 -10 -27.5t-6 12.5q2 34 -0.5 45.5t-12.5 13.5q-49 8 -76 -47q-22 -47 -9 -84q8 -20 27 -22q3 0 8.5 3t12.5 10l13 13.5l14 15.5t13 14q41 44 59 -8
q7 -24 8 -63q48 35 81.5 72t52.5 90h9q-35 -102 -143 -175q-2 -52 -13 -107.5t-32.5 -110.5t-59 -95.5t-85.5 -52.5q-40 -10 -67 10t-24 71q3 39 28 80.5t63 77t73 61.5t70 47q7 69 -7 100zM129 94q-32 -19 -64.5 -43t-69.5 -58t-62 -74t-28 -77q-4 -39 16.5 -60t49.5 -14
q19 5 35.5 18t29 28.5t24.5 41.5t19.5 45t16 51.5t12.5 49.5l11.5 50z" />
    <glyph glyph-name="h" unicode="h" horiz-adv-x="280" 
d="M126 89q1 -16 22 -18.5t33 9.5q64 56 124 220h10q-20 -60 -55 -128.5t-72 -98.5q-24 -16 -46.5 -12.5t-34.5 20.5q-17 20 -15.5 55t12 65t13 60t-12.5 38q-10 4 -25 -17t-29.5 -62t-22.5 -88q-4 -1 -6.5 1.5t-3.5 10.5q-8 34 -9.5 89.5t4.5 120t26 133t51 117.5
q57 89 131 105q32 7 45 -18t9 -62q-4 -39 -28 -89q-29 -67 -83 -130t-116 -97q-13 -69 -17 -133q8 33 19 62t34 55t49 17q20 -7 22.5 -36t-5.5 -62l-16.5 -71t-6.5 -56zM49 324q59 34 110 95t80 126q21 47 26 85q3 32 -6.5 55t-37.5 14q-59 -19 -102.5 -127.5t-69.5 -247.5z
" />
    <glyph glyph-name="i" unicode="i" horiz-adv-x="143" 
d="M72 361q-52 -178 -19 -206q17 -14 31 -4q19 12 37.5 47t26.5 59t12 43h9q-36 -126 -78 -155q-27 -19 -59 -2q-28 15 -32 61.5t5.5 88t22.5 73.5q1 2 8 4.5t15 3.5t14.5 -2t6.5 -11zM72 441q12 -2 16 -15.5t-3 -25t-21 -8.5q-9 1 -13.5 7t-4.5 13.5t3 14t9.5 11t13.5 3.5z
" />
    <glyph glyph-name="j" unicode="j" horiz-adv-x="146" 
d="M-152 -259q-40 4 -45.5 51t9 94.5t31.5 74.5q19 32 47 61.5t49 47t58 44.5q7 44 13 92.5t11 96t6 59.5q0 4 4 7t9.5 1.5t8.5 -8.5q17 -47 1 -202q86 68 112 140h10q-25 -76 -123 -154q-1 -8 -4 -27l-9.5 -64t-13 -70t-19 -75t-25 -66t-33.5 -58t-43 -34.5t-54 -10.5z
M-4 102q-106 -77 -146 -145q-15 -26 -29 -70t-11 -89t40 -48q29 -3 54.5 30t41 84.5t26.5 102t17 92t7 43.5zM45 469q10 -2 15 -17.5t-0.5 -29.5t-21.5 -12q-25 2 -24 29q1 23 19 30q6 2 12 0z" />
    <glyph glyph-name="k" unicode="k" horiz-adv-x="272" 
d="M247 699q39 -18 12 -116q-20 -71 -73.5 -145t-119.5 -113q-4 -26 -12 -69l-13.5 -73.5t-7.5 -47.5q6 30 16 62t25 67t36.5 53t43.5 10q21 -8 25.5 -41.5t-11.5 -65t-45 -34.5q16 0 23.5 -26.5l14.5 -52t20 -23.5q13 1 25 11t22 27.5t18 35t15.5 41.5t11.5 39.5l9.5 36.5
l6.5 25h10q-6 -23 -8.5 -33.5t-9.5 -37t-12.5 -40.5l-14.5 -37t-18 -35t-20 -24.5t-23.5 -16t-25.5 0.5q-33 10 -54.5 45.5t-6.5 67.5q11 16 20 47t10.5 51.5t-2.5 23.5q-24 -1 -43.5 -40.5t-37 -95.5t-23.5 -69q-18 20 -23 66.5t2.5 104.5t23 122.5t39.5 122.5t51.5 102.5
t60 65.5t63.5 8zM68 338q62 37 111.5 108t70.5 140q5 16 8.5 35.5t1 41.5t-17.5 26q-14 3 -28.5 -3.5t-27.5 -24t-24 -35.5t-22.5 -48.5l-19.5 -52t-17.5 -56.5l-14 -50.5t-12 -47t-8.5 -33.5z" />
    <glyph glyph-name="l" unicode="l" 
d="M17 148q-23 106 -8 214.5t66.5 201.5t118.5 125q34 17 51 0q26 -26 -1 -108q-26 -73 -76 -146.5t-113 -113.5q-22 -106 -13 -170q5 -39 27 -69t55 -11q25 15 47 49q26 39 51.5 96.5t33.5 83.5h9q-42 -120 -86 -185q-30 -40 -51 -52q-37 -20 -68.5 11t-42.5 74zM202 679
q-37 -36 -79 -137t-66 -209q60 40 109 111.5t70 138.5q25 77 3 99q-10 7 -20 5t-17 -8z" />
    <glyph glyph-name="m" unicode="m" horiz-adv-x="428" 
d="M32 313q14 -31 5 -83q16 63 25 85q21 51 43 51q15 0 17 -23q2 -30 -2 -77t-13 -71q25 49 91.5 115t102.5 67q65 -2 7 -170l-7 -23.5t-12 -45.5t-12 -54.5t-5 -47t8 -26.5q18 -10 46.5 29t54 97t43.5 104.5t22 59.5h9q-104 -301 -170 -301q-30 0 -51 34q-19 45 0 105.5
l38 125t4 76.5q-21 16 -85 -49t-87 -121q-5 -12 -9.5 -16.5t-7 -4t-5.5 4.5t-3.5 6.5t-1.5 5.5l7 65q7 65 -1 73q-10 16 -24 -24q-6 -17 -19 -64q-23 -82 -32 -82q-6 2 -9.5 13t-3.5 29.5t0.5 36t2 42t1.5 38.5q0 2 0.5 3.5l1 3t2 2.5l3 2t4.5 2t5.5 1.5t7.5 2.5t9 3z" />
    <glyph glyph-name="n" unicode="n" 
d="M49 314q2 -20 -8.5 -62.5t-11.5 -48.5q59 128 115 130q22 1 7 -72q-3 -16 -11 -50q-25 -102 -14 -117q7 -9 27 4q10 6 20 18.5t18 26.5t16 31.5t14 33l12 32.5t9 28l6 22l3 10h10q-50 -170 -99 -208q-21 -14 -37 -13q-36 3 -35.5 51.5t15.5 103t11 60.5q-14 24 -58 -57
q-43 -80 -45 -83q-7 -9 -10 -8q-17 8 -13.5 52.5t25.5 106.5q16 9 34 9z" />
    <glyph glyph-name="o" unicode="o" horiz-adv-x="176" 
d="M109 349q26 -8 11 -48q-5 -15 -9 -16q-3 0 0 11q1 4 3.5 11.5t3.5 11t0.5 8t-3.5 7t-9 4.5q-36 2 -64 -54t-16 -88q11 -29 43 -7q30 21 35 52q1 10 -2 19q-10 5 -14 14.5t3 17.5q12 -9 19 -25q22 -8 49.5 1t32.5 32h9q-4 -27 -33.5 -38.5t-55.5 -4.5q5 -43 -30 -71t-71 2
q-20 17 -20.5 48.5t13.5 60t43 45.5t62 7z" />
    <glyph glyph-name="p" unicode="p" horiz-adv-x="291" 
d="M11 169q1 34 -2 86t-2 70q1 15 21 23t22 -5q12 -67 12 -105q10 13 17 20t19 20t22.5 19.5t23 12.5t24.5 5.5t24 -7.5q25 -16 27.5 -54t-13.5 -71q69 0 100 117h10q-36 -126 -114 -126q-27 -50 -65 -50q-28 0 -26 21q1 22 27 35q12 5 25 5q15 37 20 71t-6 47
q-11 8 -28.5 0.5t-36.5 -26t-30 -30.5t-19 -22q1 -136 -33.5 -279.5t-89.5 -188.5q-22 -21 -49 -16t-30 43q-3 35 11 89q37 146 139 296zM-66 -226q40 41 55.5 139.5t20.5 239.5q-94 -143 -129 -282q-16 -60 -5 -100q13 -43 58 3zM134 137q11 7 26 39q-26 3 -36 -22
q-7 -17 4 -19q2 0 6 2z" />
    <glyph glyph-name="q" unicode="q" horiz-adv-x="276" 
d="M143 256q6 -27 -4 -28q-9 -2 -14 20q-1 4 -1 8q-2 14 -12.5 24.5t-16.5 11.5q-16 1 -33.5 -13t-28.5 -36t-16.5 -45.5t0.5 -42.5t24 -25q16 -6 55.5 25t60.5 62q18 28 19 10q1 -15 -7 -33q-18 -41 -32 -87q119 46 156 193h9q-42 -158 -169 -203q-13 -41 -24 -91
q70 -138 63 -215q-2 -31 -22 -42.5t-44 8.5q-32 29 -44.5 80t-7.5 104.5t22 109.5q-12 18 -9.5 27.5t22.5 14.5q16 43 41 82q-58 -48 -85 -52q-44 -7 -59 46t10 106q25 51 74 49q58 -1 73 -68zM107 -8q-36 -167 5 -222q18 -22 33.5 -13.5t17.5 34.5q9 68 -56 201zM79 62
q4 14 7 20q-11 -5 -12 -7.5t5 -12.5z" />
    <glyph glyph-name="r" unicode="r" horiz-adv-x="225" 
d="M119 80q63 57 126 220h9l-4 -10l-8.5 -22.5t-12.5 -29l-16 -34.5t-18.5 -36.5t-21 -36t-23 -32t-24.5 -26.5q-29 -22 -50 -14.5t-35 34.5q-16 28 -9.5 65.5t20.5 66l28 56t14 36.5q0 1 -13 -3t-32 -9t-29 -6q-42 -3 -43 38q-1 38 25 68q25 28 42 2q8 -12 -15 -103
q8 1 21.5 6l23.5 8.5t22 4.5t16 -6q13 -13 14 -29.5t-7.5 -36.5t-20 -40.5t-23 -48t-15.5 -51.5q-4 -28 15 -40t44 9zM38 401q-21 -6 -30 -48.5t12 -47.5q22 86 18 96z" />
    <glyph glyph-name="s" unicode="s" horiz-adv-x="192" 
d="M61 405q11 -19 -25 -91q6 -11 21 -33t25.5 -41t16.5 -37q87 35 107 97h10q-22 -69 -115 -106q9 -39 -8 -87.5t-55 -53.5q-31 -4 -35 32q-5 43 24 79q15 18 34 25q-5 18 -20 46l-24.5 47t-15.5 49t6 51q5 11 13.5 20.5t20 14t20.5 -11.5zM64 180q-38 -16 -49 -67
q-8 -40 11 -48q4 -2 10 0q24 6 30.5 49t-2.5 66zM32 324q28 65 22 77q-9 16 -20 -8q-16 -36 -3 -66q0 -2 1 -3z" />
    <glyph glyph-name="t" unicode="t" horiz-adv-x="195" 
d="M-86 558l-8 2q3 11 14 16.5t33 4t40.5 -4.5t49.5 -10q14 81 16 83q5 19 26 7q24 -15 23 -42v-5q-2 -13 -4.5 -31l-3.5 -25q124 -23 130 37h8q-2 -69 -139 -44q-4 -30 -15 -93.5t-18 -109.5t-13.5 -99.5t-5 -91t11.5 -56.5q7 -14 22.5 -17t30.5 7q19 14 36 42
q23 38 43.5 91t25.5 81h10q-6 -28 -27 -82.5t-45 -93.5q-20 -33 -37 -45q-35 -24 -74 3q-26 19 -38.5 58t-9 99t9 104t19 118.5t16.5 96.5q-120 30 -127 0z" />
    <glyph glyph-name="u" unicode="u" horiz-adv-x="259" 
d="M46 362q27 -45 -13 -157q-12 -39 -7 -39q22 4 62 79t53 84q6 4 13 -4t10 -21q8 -28 -8 -127q-1 -5 -2.5 -15.5l-2.5 -17.5t-2 -16.5t-1 -15t1 -11.5t4 -8t8 -1q33 8 65 77.5t48 130.5h10q-9 -35 -26.5 -81.5t-46 -91t-53.5 -44.5q-14 0 -25 12.5t-14 30.5q-10 58 10 178
q-3 -5 -15 -28q-63 -122 -93 -127q-11 -1 -19 10q-9 13 -11 35t0 39.5t7 48.5t7 45q1 14 15 26t26 9z" />
    <glyph glyph-name="v" unicode="v" horiz-adv-x="295" 
d="M82 369q-14 9 -36.5 1.5t-24.5 -19.5q-29 -137 -31 -173q-2 -47 13.5 -74t49.5 -23q6 1 12.5 3t13.5 7t12.5 9.5t13 12.5l12.5 13t12.5 15t11 14t11.5 14.5t10 13.5q44 -14 88.5 21t72.5 96h-9q-19 -44 -61 -83t-87 -27q77 123 60 171q-3 9 -14.5 11.5t-18.5 -3.5
q-19 -14 -38 -50t-23.5 -73.5t22.5 -58.5q-36 -60 -73 -86q-39 -26 -43 24q-2 20 12.5 80l26 110.5t5.5 53.5zM159 194q-24 32 13 104q23 43 36 45q6 1 5 -11q-5 -54 -54 -138z" />
    <glyph glyph-name="w" unicode="w" horiz-adv-x="407" 
d="M189 308q16 -7 -7 -95q-27 -106 -24 -132q3 -33 37 -19q49 23 107 163q-53 21 -24 90q20 46 52 68q26 19 25 -9v-3q-3 -47 -39 -140q32 -6 63 15t47 54h10q-20 -38 -53 -60.5t-71 -15.5q-61 -147 -114 -170q-32 -13 -48.5 9.5t-17 62.5t3 72.5t7.5 50.5q-51 -90 -91 -138
q-32 -39 -54 -33t-20 57q4 80 38 213q7 15 31 18t28 -5q2 -15 3 -27t-3 -33t-7.5 -36t-10.5 -37.5l-11.5 -36l-11 -31.5t-8.5 -25q-13 -42 -10 -45q2 -2 29 27q44 50 106 164q3 15 16 22.5t22 4.5zM307 234q35 85 41 137q1 12 -19 -14q-40 -52 -38 -93q0 -21 16 -30z" />
    <glyph glyph-name="x" unicode="x" horiz-adv-x="256" 
d="M-35 103q15 51 85 110l-47 88q-5 15 6.5 28.5t21.5 12.5q29 -17 59 -96q72 57 87 109q2 10 6.5 9.5t1.5 -10.5q-15 -56 -91 -117q36 -85 53 -107q21 -24 40 -17q21 9 40 49.5t28 73.5t15 64h8q-28 -116 -52 -159q-34 -60 -79 -52q-12 2 -23 10.5t-22.5 25t-17.5 26.5
t-17 31l-12 23q-67 -54 -81 -103q-2 -7 -6 -8q-3 0 -4 4q0 2 1 5z" />
    <glyph glyph-name="y" unicode="y" horiz-adv-x="258" 
d="M112 104q4 22 8.5 81t-0.5 90l-8.5 -17.5l-11.5 -23.5t-14.5 -24.5t-17.5 -20.5t-20 -11.5t-23 2.5q-19 9 -23.5 38t-0.5 52.5t10 45.5q5 14 18 17.5t24 -0.5t14 -8q-1 -6 -6.5 -23l-11.5 -34t-10.5 -36.5t-4.5 -30.5t6 -16q17 -10 41 32.5t40 85.5q13 34 23 -1
q1 -4 2 -10q15 -91 10 -157q80 65 119 165h9q-37 -107 -128 -178q-2 -61 -24.5 -139t-67.5 -148.5t-99 -85.5q-38 -11 -58.5 9t-16.5 58q5 37 24 78q27 60 82.5 120.5t115.5 89.5zM-36 -230q40 41 82.5 133.5t63.5 190.5q-57 -29 -109.5 -87.5t-78.5 -116.5q-20 -41 -23 -75
q-4 -33 18.5 -50.5t46.5 5.5z" />
    <glyph glyph-name="z" unicode="z" horiz-adv-x="274" 
d="M28 301q12 1 41.5 15.5t43.5 16.5q26 3 41 -10t12 -48q-4 -42 -42.5 -94.5t-78.5 -71.5q-9 -5 3 -12q30 -17 42 -29l42 33.5l42.5 34t35.5 32.5t35 38.5t25.5 41.5t22.5 52h8q-21 -72 -64 -118t-142 -119q34 -41 37 -112t-29 -132.5t-89 -71.5q-39 -7 -53 29
q-26 79 40 194q27 45 76 88q-8 11 -23.5 24.5t-21.5 21.5t-1 15q127 154 87 196q-8 9 -53.5 -7.5t-59.5 -11.5q-35 11 -22 62q10 40 34 54q18 10 28 -10q2 -8 2.5 -14.5t-3 -22t-6 -25l-6 -23t-4.5 -16.5zM82 51q-46 -39 -75 -87q-26 -42 -40.5 -96.5t1.5 -88.5
q14 -35 45 -19q26 12 46 53.5t28 88.5t7 90t-12 59zM39 396q-21 -6 -31 -48t11 -47q1 3 5.5 19l8 29t6 27.5t0.5 19.5z" />
    <glyph glyph-name="braceleft" unicode="{" horiz-adv-x="296" 
d="M84 305q-8 16 -29.5 24.5t-42.5 8.5q-11 -1 -11 5q-1 5 8 6q39 5 62.5 23t30.5 43.5t10.5 57.5t2.5 64t6.5 62t22 53t49.5 36.5t89 12.5q14 0 17 -6q2 -4 -13 -5h-14q-22 0 -39 -5.5t-28 -11.5t-20 -22l-13.5 -24t-8.5 -32t-5 -31.5t-4 -36.5q-4 -36 -6 -52t-7.5 -42.5
t-14 -38t-22 -25.5t-34.5 -20t-50 -8q55 3 80.5 -16.5t25.5 -52t-10.5 -72.5l-22 -80.5t-15 -73.5t16.5 -53t67 -19q12 0 13 -5q2 -5 -9 -6q-5 -1 -12 -1q-55 0 -82.5 16.5t-29 44t5.5 63.5t21.5 74t18.5 76t-4 69z" />
    <glyph glyph-name="bar" unicode="|" horiz-adv-x="152" 
d="M85 635l1 -724l-15 -5v724z" />
    <glyph glyph-name="braceright" unicode="}" horiz-adv-x="294" 
d="M201 355q8 -16 29.5 -24.5t42.5 -8.5q11 1 11 -5q1 -5 -8 -6q-39 -5 -62.5 -23t-30.5 -43.5t-10.5 -57.5t-2.5 -64t-6.5 -62t-22 -53t-49.5 -36.5t-89 -12.5q-14 0 -17 6q-2 4 13 5h14q22 0 39 5.5t28 11.5t20 22l13.5 24t8.5 32t5 31.5t4 36.5q4 36 6 52t7.5 42.5t14 38
t22 25.5t34.5 20t50 8q-55 -3 -80.5 16.5t-25.5 52t10.5 72.5l22 80.5t15 73.5t-16.5 53t-67 19q-12 0 -13 5q-2 5 9 6q5 1 12 1q55 0 82.5 -16.5t29 -44t-5.5 -63.5t-21.5 -74t-18.5 -76t4 -69z" />
    <glyph glyph-name="asciitilde" unicode="~" horiz-adv-x="393" 
d="M351 225q-18 -49 -49.5 -61t-65.5 1t-67 29t-60.5 15t-40.5 -33q-9 -24 -22 -18q-12 6 -5 25q13 39 37 51.5t50.5 2.5l57 -22.5l57 -23t50 0t36.5 47.5q6 17 17 10t5 -24z" />
    <glyph glyph-name="exclamdown" unicode="&#xa1;" horiz-adv-x="183" 
d="M50 60q-17 -16 -24 24q-15 84 12 285q22 166 54 234q9 17 18 14t4 -22q-20 -66 -31.5 -285t-32.5 -250zM108 670q-5 14 3 26q7 12 21 12q13 0 17 -13q5 -12 -4 -25q-7 -12 -21 -12q-12 0 -16 12z" />
    <glyph glyph-name="cent" unicode="&#xa2;" horiz-adv-x="227" 
d="M74 90v-60l-15 -5v60q-29 -5 -44 4q-40 23 -42.5 79.5t24 110t62.5 77.5v65l14 5v-62q6 3 20 5q21 1 32.5 -7.5t15.5 -33.5t-9 -72q-3 -13 -7 -14q-2 -1 -3 3t1 14q4 17 5.5 31t1.5 31.5t-8 25t-23 2.5q-13 -7 -26 -31l1 -219q1 0 2 1q37 18 86.5 81.5t82.5 118.5h10
l-39.5 -59l-38.5 -53t-49 -57.5t-45 -35.5zM22 101q16 -12 37 -7v199q-29 -57 -42 -113t5 -79z" />
    <glyph glyph-name="sterling" unicode="&#xa3;" horiz-adv-x="462" 
d="M285 403q0 -7 -27.5 -16t-46.5 -9q-26 -108 -57 -189l-16 -38q21 -8 59 -27.5t63.5 -29.5t58.5 -16.5t62 6t54 43.5l24 -25q-27 -33 -59 -44.5t-68 -2.5t-65.5 22.5t-70 35.5t-63.5 31q-43 -82 -95 -82q-15 2 -24 8q-9 5 -14 16q-10 21 2 46q29 54 111 29q2 6 4.5 17.5
t3.5 15.5q19 93 36 189q-30 4 -39 4q-16 0 -30 -8q0 -1 -2 -1t-2 2q-1 2 3 4.5t18 7.5q19 8 54 8l44 284q-84 -17 -133 -59t-49 -126h-9q0 86 49.5 130t134.5 63q24 5 62 10q-4 -138 -43 -308q37 -6 64 9q2 2 3 2t3 -2zM110 153q-74 23 -100 -26q-11 -21 -2 -37
q4 -10 12 -14q4 -3 18 -5q49 0 72 82z" />
    <glyph glyph-name="yen" unicode="&#xa5;" horiz-adv-x="419" 
d="M420 134q-1 7 -16 7h-123q11 60 17 105q26 -11 49 -39l6 5q-21 25 -52 43q6 44 13 108l11.5 105t11 81t14.5 55.5t19 8.5q29 -22 50 -99q2 -8 4.5 -10t3.5 2t0 10q-25 82 -52 102q-50 43 -82 -81q-14 -52 -27 -143q-35 -128 -108 -140q-34 -6 -54 17q-17 21 -24.5 50
t-5.5 65.5t4.5 58.5t9.5 58q68 -5 124.5 39t46.5 106q-6 33 -28.5 50.5t-55.5 4.5q-91 -32 -132 -191q-76 19 -95 95h-5q22 -80 99 -100q-8 -36 -9.5 -80t6 -91.5t38.5 -74t82 -14.5q40 9 63 39.5t40 80.5l-14 -115q-55 -24 -89 -111h-91q-23 0 -23 -7q1 -7 15 -7h93l-5 -18
q-6 -20 -9 -41h-93q-12 0 -17.5 -2t-4.5 -6q0 -7 14 -7h99q-5 -54 12 -71q16 -16 44 -9q37 11 63 80h119q23 0 23 7q-2 8 -17 8h-120q8 24 16 59h120q12 0 17.5 1.5t4.5 5.5zM91 508q13 57 35 111.5t48 72.5q22 16 39 10t27.5 -20.5t14.5 -34.5q12 -57 -44 -101t-120 -38z
M248 242l-16 -101h-62q31 79 78 101zM158 105l7 22h65q-10 -54 -11 -59h-70q3 17 9 37zM157 -14q-17 18 -10 67h68q-17 -65 -38 -72q-11 -4 -20 5z" />
    <glyph glyph-name="brokenbar" unicode="&#xa6;" horiz-adv-x="63" 
d="M39 8l-17 -6v181l17 6v-181zM39 256l-17 -6v181l17 6v-181z" />
    <glyph glyph-name="section" unicode="&#xa7;" horiz-adv-x="281" 
d="M179 659q18 -22 -40 -115q10 -15 37 -46.5t44.5 -57t23.5 -49.5q13 -46 -8.5 -104t-74.5 -73q17 -56 -9.5 -119.5t-90.5 -69.5q-48 -5 -56 39q-9 45 29 91q26 33 65 44q-7 19 -32 60t-40.5 71.5t-16 78t28.5 93.5q18 30 48 42q-17 47 4 86q8 13 22.5 25.5t33.5 18.5
t32 -15zM153 231q35 38 37.5 80t-13 71t-44 74t-38.5 69q-17 -18 -28.5 -36t-15 -36t-5 -32.5t5.5 -33.5l11.5 -31t18.5 -32l21.5 -30l25 -32zM104 187q-55 -18 -75 -73q-17 -45 3 -67q10 -10 27 -7q26 6 39.5 34.5t12 59t-6.5 53.5zM132 556q38 72 38 88q0 6 -3 10
q-13 19 -30 -7q-23 -33 -13 -72q3 -10 8 -19z" />
    <glyph glyph-name="dieresis" unicode="&#xa8;" horiz-adv-x="183" 
d="M56 452q5 -14 -3 -26q-7 -12 -21 -12q-13 0 -17 13q-5 12 4 25q7 12 21 12q12 0 16 -12zM159 450q5 -14 -3 -26t-21 -12t-17 13q-5 12 4 25q8 12 21 12q11 0 16 -12z" />
    <glyph glyph-name="ordfeminine" unicode="&#xaa;" horiz-adv-x="243" 
d="M160 369q11 10 23 27t23 38l19 37t16 34t8 19q1 5 7 16h8q-1 -2 -13 -28.5l-19 -41.5t-19.5 -38.5t-24.5 -40.5t-24 -27q-22 -19 -48 -7q-10 6 -15.5 16t-5.5 22.5t1.5 24.5t6 26.5t8 23.5t8.5 20t5 12q-65 -74 -101 -50q-25 16 -17 62q10 52 54 70q18 8 39 7
q41 -1 25 -61q-2 -9 -6 -10q-2 -1 -3 2.5t0 8.5q0 4 1.5 12t2 13t0 11t-4 9t-9.5 4q-32 1 -49 -47q-16 -42 -3 -62q4 -7 12 -6q15 0 37 23t34 40q5 8 16 -16q4 -8 4 -10q0 -4 -24 -62t-10 -76q14 -17 38 5z" />
    <glyph glyph-name="guillemotleft" unicode="&#xab;" horiz-adv-x="472" 
d="M319 41l-309 191l1 15l323 144l7 -9l-315 -140l292 -186zM430 36l-309 191l1 15l323 144l7 -9l-315 -140l292 -186z" />
    <glyph glyph-name="logicalnot" unicode="&#xac;" horiz-adv-x="318" 
d="M4 391l286 -1q0 -70 -1 -117h-25v89h-260v29z" />
    <glyph glyph-name="degree" unicode="&#xb0;" horiz-adv-x="191" 
d="M90 662q42 17 55 -51q15 -74 -9 -161q-19 -67 -50 -79q-22 -7 -40 6q-32 23 -37 86.5t18 123.5t63 75zM50 398q10 -30 34 -20q28 11 44 66t14 108.5t-12 85.5q-4 13 -15 18t-23 0q-28 -11 -41.5 -66.5t-12 -112t11.5 -79.5z" />
    <glyph glyph-name="plusminus" unicode="&#xb1;" horiz-adv-x="350" 
d="M331 221q0 -7 -18 -7h-130l-13 -119q-2 -15 -6 -15h-1q-1 1 -2 1q-5 4 -4 17l13 116h-138q-10 0 -12 7q-1 3 3.5 4t14.5 1h133l12 119q2 9 3.5 12.5t4.5 2.5q7 -4 5 -16l-5 -49.5l-7 -68.5h133q13 0 14 -5zM309 47l6 -17h-293l-6 17h293z" />
    <glyph glyph-name="twosuperior" unicode="&#xb2;" horiz-adv-x="205" 
d="M43 619q23 56 75 68q26 5 47 -5t27 -35q7 -30 -9.5 -60.5t-40.5 -50.5l-56.5 -47t-46.5 -46q-17 -23 -15 -28q3 4 8.5 10t6.5 8q18 18 37 23q14 3 25.5 -4t15.5 -23q5 -18 17 -14q11 2 24 20q10 15 22 38q2 5 6 12t6 2q-1 -7 -5 -14q-8 -20 -14.5 -31.5t-20 -25.5
t-30.5 -18q-15 -3 -25 2q-7 5 -12.5 19t-9.5 19q-8 13 -22.5 -3.5t-27.5 -40t-17 -24.5q-7 -1 -3 19q0 2 1 6l1 3q7 22 17 34q12 18 53 61q5 6 22 24t25 28q20 22 32.5 53t6.5 57q-6 34 -45 24q-22 -5 -42.5 -22t-27.5 -38q-16 -40 24 -73q-6 -6 -12.5 -3.5t-10.5 9.5
q-20 37 -6 67z" />
    <glyph glyph-name="threesuperior" unicode="&#xb3;" horiz-adv-x="187" 
d="M163 647q15 -37 -29 -81l-37 -38q24 8 42 0q18 -7 26 -27q14 -40 -11.5 -80.5t-63.5 -54.5q-34 -11 -53 -1q-17 9 -24 29q-5 13 4.5 26.5t22.5 6.5q11 -8 8.5 -18.5t-12.5 -17.5q-6 -6 -4 -12q4 -8 16 -13q14 -2 31 4q31 12 49 58q16 41 9 74q-6 29 -34 19
q-14 -5 -21 -12q-11 -13 -15 -17q-2 -1 -5 3q0 3 11 13q9 9 24 29q69 90 30 125q-17 15 -43 -3.5t-30 -39.5q-8 -46 34 -71q-6 -7 -12.5 -5t-10.5 8q-25 33 -15 68q6 25 29.5 42t49 14.5t34.5 -28.5z" />
    <glyph glyph-name="acute" unicode="&#xb4;" horiz-adv-x="147" 
d="M92 490h34l-79 -78l-33 1z" />
    <glyph glyph-name="periodcentered" unicode="&#xb7;" horiz-adv-x="64" 
d="M52 439q5 -14 -3 -26q-7 -12 -21 -12q-13 0 -17 13q-5 12 4 25q7 12 21 12q12 0 16 -12z" />
    <glyph glyph-name="cedilla" unicode="&#xb8;" horiz-adv-x="99" 
d="M39 47q1 4 3 5q5 2 5 -4v-2q-4 -16 -1 -17q44 -5 43 -28q0 -20 -28 -29q-21 -7 -45 -2q-6 1 -7 3l3 2q2 1 6 0q37 -4 51 17q13 19 -14 30q-5 2 -11 3q-10 0 -5 22z" />
    <glyph glyph-name="onesuperior" unicode="&#xb9;" horiz-adv-x="163" 
d="M68 366l34 210q2 14 7 42t7 42q2 6 -1 6q-57 -17 -75 -44q-20 -22 -17 -53.5t38 -51.5q-8 -13 -23 2q-38 45 -1 106q20 34 77 58q8 4 10 -2q3 -5 -2 -106q-6 -102 -11 -150q-5 -50 -43 -59z" />
    <glyph glyph-name="ordmasculine" unicode="&#xba;" horiz-adv-x="176" 
d="M90 662q42 17 55 -51q15 -74 -9 -161q-19 -67 -50 -79q-22 -7 -40 6q-32 23 -37 86.5t18 123.5t63 75zM50 398q10 -30 34 -20q28 11 44 66t14 108.5t-12 85.5q-4 13 -15 18t-23 0q-28 -11 -41.5 -66.5t-12 -112t11.5 -79.5z" />
    <glyph glyph-name="guillemotright" unicode="&#xbb;" horiz-adv-x="465" 
d="M135 385l309 -191l-1 -15l-323 -144l-7 9l315 140l-292 186zM24 390l309 -191l-1 -15l-323 -144l-7 9l315 140l-292 186z" />
    <glyph glyph-name="onequarter" unicode="&#xbc;" horiz-adv-x="352" 
d="M57 364l34 210q3 14 7 42t7 42q1 6 -1 6q-57 -17 -75 -44q-20 -22 -17 -53.5t38 -51.5q-8 -13 -23 2q-38 45 -1 106q20 34 77 58q8 4 10 -2q3 -5 -2 -106q-6 -102 -11 -150q-5 -50 -43 -59zM291 700l-245 -682h-16l246 682h15zM220 379l35 -25q-16 -69 -36.5 -147
l-25.5 -97q10 12 25 19t35.5 13.5t28.5 9.5q20 91 32 158q1 19 8 23q3 3 5 -4q1 -8 0 -23q-4 -34 -13 -96.5t-13 -111.5q-4 -30 -26 -30q-5 0 -10 1l14 75l-30 -11t-23.5 -9t-17.5 -10t-24 -19q33 199 36 284z" />
    <glyph glyph-name="onehalf" unicode="&#xbd;" horiz-adv-x="361" 
d="M56 379l33 208q9 50 14 82q1 6 -1 6q-57 -17 -74 -43q-19 -22 -16 -53t37 -50q-7 -13 -22 2q-37 43 -2 103q20 33 76 58q8 3 11 -2q2 -6 -3 -105q-6 -98 -10 -148q-4 -47 -43 -58zM278 702l-245 -682h-16l246 682h15zM183 298q21 55 73 66q26 5 46.5 -4.5t26.5 -34.5
q6 -30 -10 -59.5t-39.5 -49l-55 -46t-45.5 -44.5q-18 -24 -15 -29q2 4 7 10t7 9q19 17 36 22q14 3 25.5 -4t15.5 -23q3 -17 17 -14q9 2 23 20q12 17 21 38q10 17 13 14q-1 -7 -5 -14q-10 -22 -15 -31.5t-19 -24t-30 -18.5q-15 -3 -25 2q-7 5 -12 19t-9 19q-8 12 -22 -4
t-27 -39t-17 -24q-8 -2 -2 24l1 3q5 19 17 33q10 17 52 61q32 34 46 50q20 22 32.5 52t6.5 56q-7 32 -45 24q-22 -5 -42 -21.5t-27 -37.5q-14 -39 23 -72q-9 -11 -22 6q-19 36 -5 66z" />
    <glyph glyph-name="threequarters" unicode="&#xbe;" horiz-adv-x="367" 
d="M167 657q15 -38 -29 -82l-38 -39q24 9 43 1q19 -7 25 -28q15 -40 -10.5 -81t-65.5 -55q-31 -12 -53 -2q-17 8 -24 30q-5 13 4.5 26.5t22.5 6.5q11 -8 9 -18.5t-12 -17.5q-6 -5 -5 -12q4 -10 17 -13q14 -3 30 4q34 11 50 58q16 42 9 75q-6 30 -34 19q-12 -3 -21 -12
q-8 -10 -15 -17q-3 -2 -5 3q-1 1 10 13q13 13 25 29q15 19 25.5 39.5t16.5 47.5t-12 39q-17 16 -43.5 -2.5t-30.5 -39.5q-6 -49 35 -72q-9 -15 -24 2q-25 34 -15 69q6 25 30 43t50 15.5t35 -29.5zM299 691l-245 -682h-16l246 682h15zM233 394l37 -28q-16 -74 -39 -159.5
t-27 -103.5q11 13 27 20.5t38 14t31 10.5q27 125 35 171q1 20 8 25q4 3 5 -5q2 -8 0 -24q-4 -42 -13.5 -108.5t-14.5 -116.5q0 -39 -39 -32l16 81q-13 -5 -32 -11.5t-26.5 -10t-19.5 -11t-25 -20.5q35 204 39 308z" />
    <glyph glyph-name="questiondown" unicode="&#xbf;" horiz-adv-x="305" 
d="M242 240q23 -20 18 -50.5t-20 -55.5t-36 -46q-19 -19 -49 -23.5t-57.5 5t-47 34t-19.5 58.5q0 45 29 92t72 98.5t59 79.5q47 91 37 181l16 1q12 -97 -41 -192l-33 -55t-39 -67t-25.5 -62t-11.5 -68q1 -43 24 -68t54.5 -18.5t54.5 48.5q-18 25 -25.5 55t4.5 52q11 16 36 1
zM212 663q-5 14 3 26q7 12 21 12q13 0 17 -13q5 -12 -4 -25q-7 -12 -21 -12q-11 0 -16 12z" />
    <glyph glyph-name="Agrave" unicode="&#xc0;" horiz-adv-x="374" 
d="M286 728q52 -2 21 -193q-8 -47 -38 -195q57 -109 42 -205q-10 -73 -37 -87q-22 -11 -44 6q-51 38 -22 229q12 69 20 109q-35 51 -75 86l-70 -181l-19 -53t-27.5 -72t-32.5 -56.5t-43 -35.5q-33 -10 -51 21q-27 36 0 119q1 3 3.5 4t4 -1t0.5 -5q-24 -76 0 -114
q17 -24 40 -17q20 7 40.5 37t32 58t26.5 70t18 48l71 184q-16 13 -34 23.5t-39.5 18t-37 -0.5t-18.5 -34q-2 -13 -10 -12.5t-6 13.5q7 43 29 50q45 14 120 -50q32 82 74 163q29 57 48 68q7 4 14 5zM231 404l19.5 86.5t18.5 85t12 64.5t5 52.5t-8 21.5q-14 -3 -47 -62
q-29 -56 -74 -166q39 -33 74 -82zM265 325q-48 -246 -17 -269q11 -7 21 -3q25 17 33 84q13 93 -37 188zM99 761h34l78 -77l-33 -1z" />
    <glyph glyph-name="Aacute" unicode="&#xc1;" horiz-adv-x="374" 
d="M286 728q52 -2 21 -193q-8 -47 -38 -195q57 -109 42 -205q-10 -73 -37 -87q-22 -11 -44 6q-51 38 -22 229q12 69 20 109q-35 51 -75 86l-70 -181l-19 -53t-27.5 -72t-32.5 -56.5t-43 -35.5q-33 -10 -51 21q-27 36 0 119q1 3 3.5 4t4 -1t0.5 -5q-24 -76 0 -114
q17 -24 40 -17q20 7 40.5 37t32 58t26.5 70t18 48l71 184q-16 13 -34 23.5t-39.5 18t-37 -0.5t-18.5 -34q-2 -13 -10 -12.5t-6 13.5q7 43 29 50q45 14 120 -50q32 82 74 163q29 57 48 68q7 4 14 5zM231 404l19.5 86.5t18.5 85t12 64.5t5 52.5t-8 21.5q-14 -3 -47 -62
q-29 -56 -74 -166q39 -33 74 -82zM265 325q-48 -246 -17 -269q11 -7 21 -3q25 17 33 84q13 93 -37 188zM197 754h34l-79 -78l-33 1z" />
    <glyph glyph-name="Acircumflex" unicode="&#xc2;" horiz-adv-x="374" 
d="M286 728q52 -2 21 -193q-8 -47 -38 -195q57 -109 42 -205q-10 -73 -37 -87q-22 -11 -44 6q-51 38 -22 229q12 69 20 109q-35 51 -75 86l-70 -181l-19 -53t-27.5 -72t-32.5 -56.5t-43 -35.5q-33 -10 -51 21q-27 36 0 119q1 3 3.5 4t4 -1t0.5 -5q-24 -76 0 -114
q17 -24 40 -17q20 7 40.5 37t32 58t26.5 70t18 48l71 184q-16 13 -34 23.5t-39.5 18t-37 -0.5t-18.5 -34q-2 -13 -10 -12.5t-6 13.5q7 43 29 50q45 14 120 -50q32 82 74 163q29 57 48 68q7 4 14 5zM231 404l19.5 86.5t18.5 85t12 64.5t5 52.5t-8 21.5q-14 -3 -47 -62
q-29 -56 -74 -166q39 -33 74 -82zM265 325q-48 -246 -17 -269q11 -7 21 -3q25 17 33 84q13 93 -37 188zM251 815l20 -1l78 -72l-31 1l-56 54l-54 -56h-28z" />
    <glyph glyph-name="Atilde" unicode="&#xc3;" horiz-adv-x="374" 
d="M286 728q52 -2 21 -193q-8 -47 -38 -195q57 -109 42 -205q-10 -73 -37 -87q-22 -11 -44 6q-51 38 -22 229q12 69 20 109q-35 51 -75 86l-70 -181l-19 -53t-27.5 -72t-32.5 -56.5t-43 -35.5q-33 -10 -51 21q-27 36 0 119q1 3 3.5 4t4 -1t0.5 -5q-24 -76 0 -114
q17 -24 40 -17q20 7 40.5 37t32 58t26.5 70t18 48l71 184q-16 13 -34 23.5t-39.5 18t-37 -0.5t-18.5 -34q-2 -13 -10 -12.5t-6 13.5q7 43 29 50q45 14 120 -50q32 82 74 163q29 57 48 68q7 4 14 5zM231 404l19.5 86.5t18.5 85t12 64.5t5 52.5t-8 21.5q-14 -3 -47 -62
q-29 -56 -74 -166q39 -33 74 -82zM265 325q-48 -246 -17 -269q11 -7 21 -3q25 17 33 84q13 93 -37 188zM322 780q-9 -24 -32.5 -22.5t-46.5 15.5t-46 16t-32 -21q-4 -12 -7 -4q-2 7 1 15q10 27 34 25.5t47.5 -16.5t46 -17t29.5 23q3 9 6 -1q2 -7 0 -13z" />
    <glyph glyph-name="Adieresis" unicode="&#xc4;" horiz-adv-x="374" 
d="M286 728q52 -2 21 -193q-8 -47 -38 -195q57 -109 42 -205q-10 -73 -37 -87q-22 -11 -44 6q-51 38 -22 229q12 69 20 109q-35 51 -75 86l-70 -181l-19 -53t-27.5 -72t-32.5 -56.5t-43 -35.5q-33 -10 -51 21q-27 36 0 119q1 3 3.5 4t4 -1t0.5 -5q-24 -76 0 -114
q17 -24 40 -17q20 7 40.5 37t32 58t26.5 70t18 48l71 184q-16 13 -34 23.5t-39.5 18t-37 -0.5t-18.5 -34q-2 -13 -10 -12.5t-6 13.5q7 43 29 50q45 14 120 -50q32 82 74 163q29 57 48 68q7 4 14 5zM231 404l19.5 86.5t18.5 85t12 64.5t5 52.5t-8 21.5q-14 -3 -47 -62
q-29 -56 -74 -166q39 -33 74 -82zM265 325q-48 -246 -17 -269q11 -7 21 -3q25 17 33 84q13 93 -37 188zM226 790q5 -14 -3 -26q-7 -12 -21 -12q-13 0 -17 13q-5 12 4 25q7 12 21 12q12 0 16 -12zM329 788q5 -14 -3 -26t-21 -12t-17 13q-5 12 4 25q8 12 21 12q11 0 16 -12z
" />
    <glyph glyph-name="Aring" unicode="&#xc5;" horiz-adv-x="374" 
d="M329 765q26 -26 22 -71t-34 -73q-5 -68 -48 -281q57 -109 42 -205q-10 -73 -37 -87q-22 -11 -44 6q-51 38 -22 229q12 69 20 109q-35 51 -75 86l-70 -181l-19 -53t-27.5 -72t-32.5 -56.5t-43 -35.5q-33 -10 -51 21q-27 36 0 119q1 3 3.5 4t4 -1t0.5 -5q-24 -76 0 -114
q17 -24 40 -17q20 7 40.5 37t32 58t26.5 70t18 48l71 184q-16 13 -34 23.5t-39.5 18t-37 -0.5t-18.5 -34q-2 -13 -10 -12.5t-6 13.5q7 43 29 50q45 14 120 -50q32 82 74 163l13 25q-10 19 -5.5 42.5t19.5 38.5t35.5 19t42.5 -15zM231 404l21.5 95.5t21.5 99.5q-17 -3 -35 3
q-19 6 -17 32q-29 -57 -65 -148q39 -33 74 -82zM265 325q-48 -246 -17 -269q11 -7 21 -3q25 17 33 84q13 93 -37 188zM234 657l-2.5 -12t-2.5 -11t-0.5 -8.5t4 -7t9.5 -4.5q19 -1 38 19q13 71 -2 81q-10 -3 -27 -29q15 -15 4 -25q-9 5 -13 11l-11 -19l-9 -18q1 23 10 32
q3 3 3 -2q0 -3 -1 -7zM286 728q19 -1 27 -27q8 35 0 55q-12 30 -42 9q-29 -20 -32 -53q-2 -11 2 -20q0 -1 2 -1q21 35 43 37z" />
    <glyph glyph-name="AE" unicode="&#xc6;" horiz-adv-x="709" 
d="M286 728q30 -1 33 -64q43 -77 185 -81q6 49 37.5 92t73.5 37q30 -4 39 -24.5t-9 -43.5q-17 -23 -49.5 -41t-63.5 -23q-16 -52 -6 -101q26 1 51.5 -8t35.5 -28q11 -18 0 -24q-22 -15 -53 4t-41 43q-47 -11 -83.5 -54t-53.5 -96.5t-15.5 -110t24.5 -93.5q21 -33 57 -42
q144 -35 280 228h7q-52 -99 -94.5 -148.5t-89.5 -74.5q-43 -24 -103 -14q-100 15 -135 99q0 -9 -2 -25q-10 -73 -37 -87q-22 -11 -44 6q-51 38 -22 229q12 69 20 109q-35 51 -75 86l-70 -181l-19 -53t-27.5 -72t-32.5 -56.5t-43 -35.5q-33 -10 -51 21q-27 36 0 119
q1 3 3.5 4t4 -1t0.5 -5q-24 -76 0 -114q17 -24 40 -17q20 7 40.5 37t32 58t26.5 70t18 48l71 184q-16 13 -34 23.5t-39.5 18t-37 -0.5t-18.5 -34q-2 -13 -10 -12.5t-6 13.5q7 43 29 50q45 14 120 -50q32 82 74 163q29 57 48 68q7 4 14 5zM513 478q-16 51 -10 99
q-137 8 -184 77q0 -64 -50 -314q19 -36 31 -76q10 84 68.5 148.5t144.5 65.5zM231 404l19.5 86.5t18.5 85t12 64.5t5 52.5t-8 21.5q-14 -3 -47 -62q-29 -56 -74 -166q39 -33 74 -82zM265 325q-48 -246 -17 -269q11 -7 21 -3q25 17 33 84q3 28 2 52q-5 21 -6 43q-8 43 -33 93
zM534 586q66 15 104 61q16 20 7.5 36t-31.5 8q-24 -8 -47.5 -41.5t-32.5 -63.5zM529 467q7 -20 32 -36t45 -8q9 5 3 18q-10 17 -34 23.5t-46 2.5z" />
    <glyph glyph-name="Ccedilla" unicode="&#xc7;" horiz-adv-x="395" 
d="M187 419q-20 -2 -36 1q-13 -51 -19.5 -82.5t-13 -84t1.5 -94.5t30 -73q24 -35 74 -32q76 4 133 108q33 59 55 138h6q-27 -92 -55 -140q-60 -106 -138 -112q-29 -3 -56 4q-5 -19 -1 -20q57 -6 60 -36q2 -24 -31 -40q-31 -14 -70 -5q-7 1 -9 3q-2 3 3 4q4 0 9 -1
q47 -5 68 21q18 22 -8 38q-9 7 -25 10q-13 0 -7 29q-47 15 -72.5 61t-27 104.5t5 110t19.5 96.5q-111 35 -131 153l5 1q21 -116 128 -149q73 225 209 263q38 10 64 -6t34.5 -46t5.5 -64t-18 -59q-27 -46 -79.5 -71t-113.5 -30zM152 426q16 -3 35 -1q140 12 188 97
q16 26 18.5 66t-14.5 71.5t-51 30.5q-28 -2 -42 -12q-66 -42 -134 -252z" />
    <glyph glyph-name="Egrave" unicode="&#xc8;" horiz-adv-x="407" 
d="M345 646q-17 -23 -49.5 -41t-63.5 -23q-16 -52 -6 -101q26 1 51.5 -8t35.5 -28q10 -18 0 -24q-22 -15 -53 4t-41 43q-47 -11 -83.5 -54t-53.5 -96.5t-15.5 -110t24.5 -93.5q20 -32 57 -41q38 -9 75.5 3t65 34.5t56 60.5t44 65.5l34.5 63.5h12q-52 -100 -94.5 -150
t-89.5 -75q-43 -24 -103 -14q-51 8 -86 35t-48.5 64.5t-14.5 80.5t16 85t43 76.5t67 55.5t88 22q-16 51 -10 99q-179 10 -205 126h9q31 -112 197 -118q6 48 37 90.5t74 36.5q30 -4 39 -24.5t-9 -43.5zM234 589q67 15 104 60q16 20 7.5 36t-31.5 8q-24 -8 -47.5 -41
t-32.5 -63zM229 469q7 -20 32 -36t45 -8q7 4 1 18q-10 17 -33 23t-45 3zM155 792h34l78 -77l-33 -1z" />
    <glyph glyph-name="Eacute" unicode="&#xc9;" horiz-adv-x="407" 
d="M345 646q-17 -23 -49.5 -41t-63.5 -23q-16 -52 -6 -101q26 1 51.5 -8t35.5 -28q10 -18 0 -24q-22 -15 -53 4t-41 43q-47 -11 -83.5 -54t-53.5 -96.5t-15.5 -110t24.5 -93.5q20 -32 57 -41q38 -9 75.5 3t65 34.5t56 60.5t44 65.5l34.5 63.5h12q-52 -100 -94.5 -150
t-89.5 -75q-43 -24 -103 -14q-51 8 -86 35t-48.5 64.5t-14.5 80.5t16 85t43 76.5t67 55.5t88 22q-16 51 -10 99q-179 10 -205 126h9q31 -112 197 -118q6 48 37 90.5t74 36.5q30 -4 39 -24.5t-9 -43.5zM234 589q67 15 104 60q16 20 7.5 36t-31.5 8q-24 -8 -47.5 -41
t-32.5 -63zM229 469q7 -20 32 -36t45 -8q7 4 1 18q-10 17 -33 23t-45 3zM237 767h34l-79 -78l-33 1z" />
    <glyph glyph-name="Ecircumflex" unicode="&#xca;" horiz-adv-x="407" 
d="M345 646q-17 -23 -49.5 -41t-63.5 -23q-16 -52 -6 -101q26 1 51.5 -8t35.5 -28q10 -18 0 -24q-22 -15 -53 4t-41 43q-47 -11 -83.5 -54t-53.5 -96.5t-15.5 -110t24.5 -93.5q20 -32 57 -41q38 -9 75.5 3t65 34.5t56 60.5t44 65.5l34.5 63.5h12q-52 -100 -94.5 -150
t-89.5 -75q-43 -24 -103 -14q-51 8 -86 35t-48.5 64.5t-14.5 80.5t16 85t43 76.5t67 55.5t88 22q-16 51 -10 99q-179 10 -205 126h9q31 -112 197 -118q6 48 37 90.5t74 36.5q30 -4 39 -24.5t-9 -43.5zM234 589q67 15 104 60q16 20 7.5 36t-31.5 8q-24 -8 -47.5 -41
t-32.5 -63zM229 469q7 -20 32 -36t45 -8q7 4 1 18q-10 17 -33 23t-45 3zM276 809l20 -1l78 -72l-31 1l-56 54l-54 -56h-28z" />
    <glyph glyph-name="Edieresis" unicode="&#xcb;" horiz-adv-x="407" 
d="M345 646q-17 -23 -49.5 -41t-63.5 -23q-16 -52 -6 -101q26 1 51.5 -8t35.5 -28q10 -18 0 -24q-22 -15 -53 4t-41 43q-47 -11 -83.5 -54t-53.5 -96.5t-15.5 -110t24.5 -93.5q20 -32 57 -41q38 -9 75.5 3t65 34.5t56 60.5t44 65.5l34.5 63.5h12q-52 -100 -94.5 -150
t-89.5 -75q-43 -24 -103 -14q-51 8 -86 35t-48.5 64.5t-14.5 80.5t16 85t43 76.5t67 55.5t88 22q-16 51 -10 99q-179 10 -205 126h9q31 -112 197 -118q6 48 37 90.5t74 36.5q30 -4 39 -24.5t-9 -43.5zM234 589q67 15 104 60q16 20 7.5 36t-31.5 8q-24 -8 -47.5 -41
t-32.5 -63zM229 469q7 -20 32 -36t45 -8q7 4 1 18q-10 17 -33 23t-45 3zM261 779q5 -14 -3 -26t-21 -12t-17 13q-5 12 4 25q8 12 21 12q11 0 16 -12zM364 777q5 -14 -3 -26q-7 -12 -21 -12q-13 0 -17 13q-5 12 4 25q7 12 21 12q12 0 16 -12z" />
    <glyph glyph-name="Igrave" unicode="&#xcc;" horiz-adv-x="376" 
d="M367 518v-7q-34 14 -68 45q2 -127 -25 -236q28 -2 40 -4l-2 -8l-40 4q-39 -165 -148 -234q-33 -21 -71 -21q-43 -1 -65.5 22.5t-15.5 65.5q6 36 30 68q25 35 66 61q64 41 151 47q31 119 52 267q-8 11 -17.5 36t-11 47t13.5 26q14 1 24 -15t14 -41t5.5 -44.5t0.5 -32.5
q39 -35 67 -46zM204 270q8 28 11 42q-141 -14 -206 -104q-25 -37 -29 -65q-12 -77 73 -77q22 0 40.5 9t34 29t26 36.5t22 46.5t15.5 42.5zM271 599q4 7 3.5 51t-15.5 39q-10 -5 -8 -24.5t8 -38t12 -27.5zM216 789h34l78 -77l-33 -1z" />
    <glyph glyph-name="Iacute" unicode="&#xcd;" horiz-adv-x="376" 
d="M367 518v-7q-34 14 -68 45q2 -127 -25 -236q28 -2 40 -4l-2 -8l-40 4q-39 -165 -148 -234q-33 -21 -71 -21q-43 -1 -65.5 22.5t-15.5 65.5q6 36 30 68q25 35 66 61q64 41 151 47q31 119 52 267q-8 11 -17.5 36t-11 47t13.5 26q14 1 24 -15t14 -41t5.5 -44.5t0.5 -32.5
q39 -35 67 -46zM204 270q8 28 11 42q-141 -14 -206 -104q-25 -37 -29 -65q-12 -77 73 -77q22 0 40.5 9t34 29t26 36.5t22 46.5t15.5 42.5zM271 599q4 7 3.5 51t-15.5 39q-10 -5 -8 -24.5t8 -38t12 -27.5zM248 782h34l-79 -78l-33 1z" />
    <glyph glyph-name="Icircumflex" unicode="&#xce;" horiz-adv-x="376" 
d="M367 518v-7q-34 14 -68 45q2 -127 -25 -236q28 -2 40 -4l-2 -8l-40 4q-39 -165 -148 -234q-33 -21 -71 -21q-43 -1 -65.5 22.5t-15.5 65.5q6 36 30 68q25 35 66 61q64 41 151 47q31 119 52 267q-8 11 -17.5 36t-11 47t13.5 26q14 1 24 -15t14 -41t5.5 -44.5t0.5 -32.5
q39 -35 67 -46zM204 270q8 28 11 42q-141 -14 -206 -104q-25 -37 -29 -65q-12 -77 73 -77q22 0 40.5 9t34 29t26 36.5t22 46.5t15.5 42.5zM271 599q4 7 3.5 51t-15.5 39q-10 -5 -8 -24.5t8 -38t12 -27.5zM236 787l20 -1l78 -72l-31 1l-56 54l-54 -56h-28z" />
    <glyph glyph-name="Idieresis" unicode="&#xcf;" horiz-adv-x="376" 
d="M367 518v-7q-34 14 -68 45q2 -127 -25 -236q28 -2 40 -4l-2 -8l-40 4q-39 -165 -148 -234q-33 -21 -71 -21q-43 -1 -65.5 22.5t-15.5 65.5q6 36 30 68q25 35 66 61q64 41 151 47q31 119 52 267q-8 11 -17.5 36t-11 47t13.5 26q14 1 24 -15t14 -41t5.5 -44.5t0.5 -32.5
q39 -35 67 -46zM204 270q8 28 11 42q-141 -14 -206 -104q-25 -37 -29 -65q-12 -77 73 -77q22 0 40.5 9t34 29t26 36.5t22 46.5t15.5 42.5zM271 599q4 7 3.5 51t-15.5 39q-10 -5 -8 -24.5t8 -38t12 -27.5zM236 754q5 -14 -3 -26q-7 -12 -21 -12q-13 0 -17 13q-5 12 4 25
q7 12 21 12q12 0 16 -12zM339 752q5 -14 -3 -26t-21 -12t-17 13q-5 12 4 25q8 12 21 12q11 0 16 -12z" />
    <glyph glyph-name="Eth" unicode="&#xd0;" horiz-adv-x="440" 
d="M213 444q0 -7 -23.5 -15t-43.5 -10q-15 -66 -29 -110q78 34 146 27q17 66 26 112t6 114.5t-31 108.5q-24 33 -75 31q-75 -3 -133 -109q-29 -52 -54 -139h-6q24 88 55 142q61 106 138 112q60 4 98.5 -23.5t52.5 -70.5t15.5 -98.5t-6 -101.5t-19.5 -86q54 -16 88 -55.5
t44 -97.5h-5q-22 117 -128 148q-76 -233 -209 -261q-62 -13 -86.5 20.5t-20.5 88.5q3 38 19 66q14 23 35 41q4 62 17 146q-30 4 -38 4q-16 0 -30 -8q0 -1 -2 -1t-2 2q-1 2 3 4.5t18 7.5q19 8 54 8q8 55 30 171q2 3 5.5 7t14.5 11t23 7q12 -78 -11 -203q32 -5 58 10q2 2 3 2
t3 -2zM261 330q-75 8 -147 -29q-16 -46 -23 -89t-5 -64l1 -20q-28 16 -20 142q-18 -18 -29 -36q-16 -27 -20 -66t13 -71t55 -32q24 2 41 12q70 44 134 253z" />
    <glyph glyph-name="Ntilde" unicode="&#xd1;" horiz-adv-x="402" 
d="M96 608q16 -102 -13 -238q43 113 100 216.5t101 119.5q44 19 51 -50q7 -76 -44 -342q-1 -7 -4 -20q-3 -18 -5 -27q54 -51 47 -190q-2 -49 -14.5 -86.5t-30.5 -48.5q-13 -7 -36 3q-39 21 -39 107.5t24 226.5q-29 -3 -58 -22l-6 6q37 24 66 24q7 38 17 87l17.5 86.5
l15.5 77.5t12.5 68t6 50.5t-2.5 32.5t-13 8q-36 -13 -86.5 -99.5t-86 -172t-50.5 -136.5q-26 -87 -39 -224q-60 38 20 514q23 29 50 29zM281 256l-19.5 -108.5t-12.5 -89t-2 -72t13 -34.5q11 -8 20 -3q35 22 40 128q4 62 -4.5 102.5t-34.5 76.5zM326 766q-9 -24 -32.5 -22.5
t-46.5 15.5t-46 16t-32 -21q-4 -12 -7 -4q-2 7 1 15q10 27 34 25.5t47.5 -16.5t46 -17t29.5 23q3 9 6 -1q2 -7 0 -13z" />
    <glyph glyph-name="Ograve" unicode="&#xd2;" horiz-adv-x="395" 
d="M118 55q-39 15 -59.5 60.5t-21.5 105t4 111t15 97.5q-87 34 -103 152l9 1q14 -113 95 -145q56 220 163 259q24 8 43.5 -3t29.5 -33q8 -4 13 -10q22 -24 31 -83.5t4 -135.5q-12 -170 -69 -284q-45 -88 -107 -97q-24 -3 -47 5zM108 421l-7.5 -37t-8.5 -44.5l-7 -44
t-5.5 -48.5t-1 -44t3 -45t10.5 -37.5t18 -33.5q20 -25 43 -28.5t44 11.5t38 35.5t30 45.5q56 115 68 280t-34 216q15 -58 -7.5 -114.5t-73 -88.5t-110.5 -23zM289 651q-39 22 -108 -81q-5 -6 -7 0q0 3 1 5q66 100 109 87q-13 21 -32 26.5t-38 -9.5q-55 -47 -104 -250
q59 -8 107.5 23.5t68.5 86.5t3 112zM179 800h34l78 -77l-33 -1z" />
    <glyph glyph-name="Oacute" unicode="&#xd3;" horiz-adv-x="395" 
d="M118 55q-39 15 -59.5 60.5t-21.5 105t4 111t15 97.5q-87 34 -103 152l9 1q14 -113 95 -145q56 220 163 259q24 8 43.5 -3t29.5 -33q8 -4 13 -10q22 -24 31 -83.5t4 -135.5q-12 -170 -69 -284q-45 -88 -107 -97q-24 -3 -47 5zM108 421l-7.5 -37t-8.5 -44.5l-7 -44
t-5.5 -48.5t-1 -44t3 -45t10.5 -37.5t18 -33.5q20 -25 43 -28.5t44 11.5t38 35.5t30 45.5q56 115 68 280t-34 216q15 -58 -7.5 -114.5t-73 -88.5t-110.5 -23zM289 651q-39 22 -108 -81q-5 -6 -7 0q0 3 1 5q66 100 109 87q-13 21 -32 26.5t-38 -9.5q-55 -47 -104 -250
q59 -8 107.5 23.5t68.5 86.5t3 112zM233 786h34l-79 -78l-33 1z" />
    <glyph glyph-name="Ocircumflex" unicode="&#xd4;" horiz-adv-x="395" 
d="M118 55q-39 15 -59.5 60.5t-21.5 105t4 111t15 97.5q-87 34 -103 152l9 1q14 -113 95 -145q56 220 163 259q24 8 43.5 -3t29.5 -33q8 -4 13 -10q22 -24 31 -83.5t4 -135.5q-12 -170 -69 -284q-45 -88 -107 -97q-24 -3 -47 5zM108 421l-7.5 -37t-8.5 -44.5l-7 -44
t-5.5 -48.5t-1 -44t3 -45t10.5 -37.5t18 -33.5q20 -25 43 -28.5t44 11.5t38 35.5t30 45.5q56 115 68 280t-34 216q15 -58 -7.5 -114.5t-73 -88.5t-110.5 -23zM289 651q-39 22 -108 -81q-5 -6 -7 0q0 3 1 5q66 100 109 87q-13 21 -32 26.5t-38 -9.5q-55 -47 -104 -250
q59 -8 107.5 23.5t68.5 86.5t3 112zM237 797l20 -1l78 -72l-31 1l-56 54l-54 -56h-28z" />
    <glyph glyph-name="Otilde" unicode="&#xd5;" horiz-adv-x="395" 
d="M118 55q-39 15 -59.5 60.5t-21.5 105t4 111t15 97.5q-87 34 -103 152l9 1q14 -113 95 -145q56 220 163 259q24 8 43.5 -3t29.5 -33q8 -4 13 -10q22 -24 31 -83.5t4 -135.5q-12 -170 -69 -284q-45 -88 -107 -97q-24 -3 -47 5zM108 421l-7.5 -37t-8.5 -44.5l-7 -44
t-5.5 -48.5t-1 -44t3 -45t10.5 -37.5t18 -33.5q20 -25 43 -28.5t44 11.5t38 35.5t30 45.5q56 115 68 280t-34 216q15 -58 -7.5 -114.5t-73 -88.5t-110.5 -23zM289 651q-39 22 -108 -81q-5 -6 -7 0q0 3 1 5q66 100 109 87q-13 21 -32 26.5t-38 -9.5q-55 -47 -104 -250
q59 -8 107.5 23.5t68.5 86.5t3 112zM338 750q-9 -24 -32.5 -22.5t-46.5 15.5t-46 16t-32 -21q-4 -12 -7 -4q-2 7 1 15q10 27 34 25.5t47.5 -16.5t46 -17t29.5 23q3 9 6 -1q2 -7 0 -13z" />
    <glyph glyph-name="Odieresis" unicode="&#xd6;" horiz-adv-x="395" 
d="M118 55q-39 15 -59.5 60.5t-21.5 105t4 111t15 97.5q-87 34 -103 152l9 1q14 -113 95 -145q56 220 163 259q24 8 43.5 -3t29.5 -33q8 -4 13 -10q22 -24 31 -83.5t4 -135.5q-12 -170 -69 -284q-45 -88 -107 -97q-24 -3 -47 5zM108 421l-7.5 -37t-8.5 -44.5l-7 -44
t-5.5 -48.5t-1 -44t3 -45t10.5 -37.5t18 -33.5q20 -25 43 -28.5t44 11.5t38 35.5t30 45.5q56 115 68 280t-34 216q15 -58 -7.5 -114.5t-73 -88.5t-110.5 -23zM289 651q-39 22 -108 -81q-5 -6 -7 0q0 3 1 5q66 100 109 87q-13 21 -32 26.5t-38 -9.5q-55 -47 -104 -250
q59 -8 107.5 23.5t68.5 86.5t3 112zM207 772q5 -14 -3 -26t-21 -12t-17 13q-5 12 4 25q8 12 21 12q11 0 16 -12zM310 770q5 -14 -3 -26q-7 -12 -21 -12q-13 0 -17 13q-5 12 4 25q7 12 21 12q12 0 16 -12z" />
    <glyph glyph-name="multiply" unicode="&#xd7;" horiz-adv-x="397" 
d="M360 351q3 -7 -9 -19l-143 -123l120 -113q14 -12 10 -22q-5 -5 -24 8l-120 117l-142 -122q-21 -17 -24 -11q-5 9 6 18l147 126l-119 112q-13 13 -11 22l1 2l2 2q3 2 20 -9l121 -116l140 119q20 16 25 9z" />
    <glyph glyph-name="Oslash" unicode="&#xd8;" horiz-adv-x="395" 
d="M85 77l-13 -37h-16l18 50q-27 36 -34 104t-1.5 125t17.5 110q-87 34 -103 152l5 1q14 -115 99 -149q57 224 163 263q40 13 65 -22l17 48h15l-23 -63l12 -9q46 -51 34 -219t-70 -284q-45 -88 -105 -97q-24 -3 -47 5q-20 8 -33 22zM110 87q20 -25 43 -28.5t44 11.5t38 35.5
t30 45.5q56 115 68 280t-34 216q15 -59 -9 -116t-73 -88l-121 -334q4 -8 14 -22zM181 570q-5 -6 -7 0q0 3 1 5q63 96 106 89l2 5q-14 17 -32.5 20.5t-36.5 -10.5q-54 -47 -104 -252q47 -7 91 14l77 214q-40 2 -97 -85zM108 421q-1 -4 -8.5 -41.5t-9.5 -51.5l-7 -48.5t-5 -55
t2 -47.5t8 -47l110 303q-43 -19 -90 -12zM292 651h-1l-71 -199q47 31 68 86.5t4 112.5z" />
    <glyph glyph-name="Ugrave" unicode="&#xd9;" horiz-adv-x="443" 
d="M240 278q7 54 25 121q-49 -110 -112 -210.5t-106 -114.5q-44 -15 -49 48q-5 71 54 318q2 9 7 27q7 31 11 47q-51 59 -35 191q1 10 2.5 19l4 24t6.5 26.5l8.5 24.5t11.5 21.5t14.5 14.5t18 5.5t22.5 -7.5q67 -41 -2 -333q23 -1 58 17l6 -7q-39 -22 -66 -20
q-73 -299 -81 -350q-8 -57 4 -56q37 10 92.5 95t95 167.5t57.5 133.5q30 87 51 221q52 -37 -30 -429q-22 -94 -23 -163q-1 -22 4.5 -31.5t16 -6t21.5 11.5t23 20q30 29 59 78.5t43 84.5l14 34h9q-51 -138 -121 -206q-64 -64 -94 -31q-38 39 -20 215zM73 525l26 109t17 86
t7 76t-14 31q-33 19 -51 -50q-6 -22 -14 -72q-13 -129 29 -180zM230 814h34l78 -77l-33 -1z" />
    <glyph glyph-name="Uacute" unicode="&#xda;" horiz-adv-x="443" 
d="M240 278q7 54 25 121q-49 -110 -112 -210.5t-106 -114.5q-44 -15 -49 48q-5 71 54 318q2 9 7 27q7 31 11 47q-51 59 -35 191q1 10 2.5 19l4 24t6.5 26.5l8.5 24.5t11.5 21.5t14.5 14.5t18 5.5t22.5 -7.5q67 -41 -2 -333q23 -1 58 17l6 -7q-39 -22 -66 -20
q-73 -299 -81 -350q-8 -57 4 -56q37 10 92.5 95t95 167.5t57.5 133.5q30 87 51 221q52 -37 -30 -429q-22 -94 -23 -163q-1 -22 4.5 -31.5t16 -6t21.5 11.5t23 20q30 29 59 78.5t43 84.5l14 34h9q-51 -138 -121 -206q-64 -64 -94 -31q-38 39 -20 215zM73 525l26 109t17 86
t7 76t-14 31q-33 19 -51 -50q-6 -22 -14 -72q-13 -129 29 -180zM302 820h34l-79 -78l-33 1z" />
    <glyph glyph-name="Ucircumflex" unicode="&#xdb;" horiz-adv-x="443" 
d="M240 278q7 54 25 121q-49 -110 -112 -210.5t-106 -114.5q-44 -15 -49 48q-5 71 54 318q2 9 7 27q7 31 11 47q-51 59 -35 191q1 10 2.5 19l4 24t6.5 26.5l8.5 24.5t11.5 21.5t14.5 14.5t18 5.5t22.5 -7.5q67 -41 -2 -333q23 -1 58 17l6 -7q-39 -22 -66 -20
q-73 -299 -81 -350q-8 -57 4 -56q37 10 92.5 95t95 167.5t57.5 133.5q30 87 51 221q52 -37 -30 -429q-22 -94 -23 -163q-1 -22 4.5 -31.5t16 -6t21.5 11.5t23 20q30 29 59 78.5t43 84.5l14 34h9q-51 -138 -121 -206q-64 -64 -94 -31q-38 39 -20 215zM73 525l26 109t17 86
t7 76t-14 31q-33 19 -51 -50q-6 -22 -14 -72q-13 -129 29 -180zM282 822l20 -1l78 -72l-31 1l-56 54l-54 -56h-28z" />
    <glyph glyph-name="Udieresis" unicode="&#xdc;" horiz-adv-x="443" 
d="M240 278q7 54 25 121q-49 -110 -112 -210.5t-106 -114.5q-44 -15 -49 48q-5 71 54 318q2 9 7 27q7 31 11 47q-51 59 -35 191q1 10 2.5 19l4 24t6.5 26.5l8.5 24.5t11.5 21.5t14.5 14.5t18 5.5t22.5 -7.5q67 -41 -2 -333q23 -1 58 17l6 -7q-39 -22 -66 -20
q-73 -299 -81 -350q-8 -57 4 -56q37 10 92.5 95t95 167.5t57.5 133.5q30 87 51 221q52 -37 -30 -429q-22 -94 -23 -163q-1 -22 4.5 -31.5t16 -6t21.5 11.5t23 20q30 29 59 78.5t43 84.5l14 34h9q-51 -138 -121 -206q-64 -64 -94 -31q-38 39 -20 215zM73 525l26 109t17 86
t7 76t-14 31q-33 19 -51 -50q-6 -22 -14 -72q-13 -129 29 -180zM264 792q5 -14 -3 -26q-7 -12 -21 -12q-13 0 -17 13q-5 12 4 25q7 12 21 12q12 0 16 -12zM367 790q5 -14 -3 -26t-21 -12t-17 13q-5 12 4 25q8 12 21 12q11 0 16 -12z" />
    <glyph glyph-name="Yacute" unicode="&#xdd;" horiz-adv-x="419" 
d="M89 502q-7 -37 -9.5 -58t-4.5 -58t5.5 -65.5t24.5 -49.5q20 -23 54 -17q72 12 108 144q32 218 77 231q15 4 32 -11q27 -20 52 -102q1 -6 0 -10t-3.5 -2t-4.5 10q-21 77 -50 99q-11 7 -19 -8.5t-14.5 -55.5t-11 -81l-11.5 -105t-13 -108q31 -18 52 -43l-6 -5
q-23 28 -49 39q-34 -254 -104 -273q-28 -7 -44 9q-13 14 -13 50t12 77q34 115 100 143q3 28 14 112q-18 -49 -41 -79t-62 -39q-51 -12 -82 14.5t-38.5 74t-6 92t9.5 80.5q-77 20 -99 100h8q23 -74 92 -93q40 156 132 189q33 12 55.5 -5t28.5 -50q10 -63 -45.5 -106.5
t-125.5 -39.5zM92 508q65 -3 117.5 39t43.5 100q-4 20 -14 33.5t-26.5 19.5t-38.5 -8q-47 -27 -82 -184zM248 242q-58 -28 -90 -137q-12 -39 -12.5 -71.5t11.5 -47.5q9 -9 20 -5q23 7 38 71t33 190zM326 807h34l-79 -78l-33 1z" />
    <glyph glyph-name="Thorn" unicode="&#xde;" horiz-adv-x="833" 
 />
    <glyph glyph-name="germandbls" unicode="&#xdf;" horiz-adv-x="362" 
d="M57 262q-36 -128 -32 -171q-17 11 -17 65.5t8 89.5q7 57 19.5 121.5t30 144t26.5 126.5q32 13 61 17q30 3 70 -15.5t69.5 -47.5t29 -68.5t-44.5 -72.5q-47 -36 -146 -61q57 -13 107 -53t76 -93t28.5 -107t-36 -101.5t-114.5 -71.5q0 4 -0.5 12t-0.5 12q56 31 66.5 116.5
t-26 169t-101.5 109.5q-12 5 -13 7q0 3 3 5q10 7 34.5 16.5l45 17t42 22.5t25 33t-5.5 47q-24 55 -58 75.5t-69 9.5q2 -38 -5.5 -87.5t-15.5 -79.5t-29 -98.5z" />
    <glyph glyph-name="agrave" unicode="&#xe0;" horiz-adv-x="307" 
d="M198 80q45 40 115 200q3 8 9 20h10q-1 -2 -16.5 -36.5l-24.5 -53l-25 -49.5t-31.5 -53t-30.5 -35q-29 -25 -62 -8q-13 7 -20 20t-7 29t1.5 31.5t8 34l10.5 30.5t10 26t7 15q-81 -91 -127 -67q-31 17 -26 70q5 61 52 93q30 21 69 19q53 -2 32 -79q-3 -13 -8.5 -13t-3.5 15
q1 4 3 15t2.5 17t-0.5 14t-5.5 12t-12.5 5q-39 1 -62 -56q-21 -51 -7 -81q6 -13 18 -12q19 1 48.5 31.5t42.5 50.5q6 10 21 -20q5 -10 5 -14q-1 -11 -12.5 -37.5l-22 -50t-16 -50.5t6.5 -39q18 -23 49 6zM61 467h34l78 -77l-33 -1z" />
    <glyph glyph-name="aacute" unicode="&#xe1;" horiz-adv-x="307" 
d="M198 80q45 40 115 200q3 8 9 20h10q-1 -2 -16.5 -36.5l-24.5 -53l-25 -49.5t-31.5 -53t-30.5 -35q-29 -25 -62 -8q-13 7 -20 20t-7 29t1.5 31.5t8 34l10.5 30.5t10 26t7 15q-81 -91 -127 -67q-31 17 -26 70q5 61 52 93q30 21 69 19q53 -2 32 -79q-3 -13 -8.5 -13t-3.5 15
q1 4 3 15t2.5 17t-0.5 14t-5.5 12t-12.5 5q-39 1 -62 -56q-21 -51 -7 -81q6 -13 18 -12q19 1 48.5 31.5t42.5 50.5q6 10 21 -20q5 -10 5 -14q-1 -11 -12.5 -37.5l-22 -50t-16 -50.5t6.5 -39q18 -23 49 6zM117 471h34l-79 -78l-33 1z" />
    <glyph glyph-name="acircumflex" unicode="&#xe2;" horiz-adv-x="307" 
d="M198 80q45 40 115 200q3 8 9 20h10q-1 -2 -16.5 -36.5l-24.5 -53l-25 -49.5t-31.5 -53t-30.5 -35q-29 -25 -62 -8q-13 7 -20 20t-7 29t1.5 31.5t8 34l10.5 30.5t10 26t7 15q-81 -91 -127 -67q-31 17 -26 70q5 61 52 93q30 21 69 19q53 -2 32 -79q-3 -13 -8.5 -13t-3.5 15
q1 4 3 15t2.5 17t-0.5 14t-5.5 12t-12.5 5q-39 1 -62 -56q-21 -51 -7 -81q6 -13 18 -12q19 1 48.5 31.5t42.5 50.5q6 10 21 -20q5 -10 5 -14q-1 -11 -12.5 -37.5l-22 -50t-16 -50.5t6.5 -39q18 -23 49 6zM85 471l20 -1l78 -72l-31 1l-56 54l-54 -56h-28z" />
    <glyph glyph-name="atilde" unicode="&#xe3;" horiz-adv-x="307" 
d="M198 80q45 40 115 200q3 8 9 20h10q-1 -2 -16.5 -36.5l-24.5 -53l-25 -49.5t-31.5 -53t-30.5 -35q-29 -25 -62 -8q-13 7 -20 20t-7 29t1.5 31.5t8 34l10.5 30.5t10 26t7 15q-81 -91 -127 -67q-31 17 -26 70q5 61 52 93q30 21 69 19q53 -2 32 -79q-3 -13 -8.5 -13t-3.5 15
q1 4 3 15t2.5 17t-0.5 14t-5.5 12t-12.5 5q-39 1 -62 -56q-21 -51 -7 -81q6 -13 18 -12q19 1 48.5 31.5t42.5 50.5q6 10 21 -20q5 -10 5 -14q-1 -11 -12.5 -37.5l-22 -50t-16 -50.5t6.5 -39q18 -23 49 6zM165 430q-9 -24 -32.5 -22.5t-46.5 15.5t-46 16t-32 -21
q-4 -12 -7 -4q-2 7 1 15q10 27 34 25.5t47.5 -16.5t46 -17t29.5 23q3 9 6 -1q2 -7 0 -13z" />
    <glyph glyph-name="adieresis" unicode="&#xe4;" horiz-adv-x="307" 
d="M198 80q45 40 115 200q3 8 9 20h10q-1 -2 -16.5 -36.5l-24.5 -53l-25 -49.5t-31.5 -53t-30.5 -35q-29 -25 -62 -8q-13 7 -20 20t-7 29t1.5 31.5t8 34l10.5 30.5t10 26t7 15q-81 -91 -127 -67q-31 17 -26 70q5 61 52 93q30 21 69 19q53 -2 32 -79q-3 -13 -8.5 -13t-3.5 15
q1 4 3 15t2.5 17t-0.5 14t-5.5 12t-12.5 5q-39 1 -62 -56q-21 -51 -7 -81q6 -13 18 -12q19 1 48.5 31.5t42.5 50.5q6 10 21 -20q5 -10 5 -14q-1 -11 -12.5 -37.5l-22 -50t-16 -50.5t6.5 -39q18 -23 49 6zM73 439q5 -14 -3 -26t-21 -12t-17 13q-5 12 4 25q8 12 21 12
q11 0 16 -12zM176 437q5 -14 -3 -26q-7 -12 -21 -12q-13 0 -17 13q-5 12 4 25q7 12 21 12q12 0 16 -12z" />
    <glyph glyph-name="aring" unicode="&#xe5;" horiz-adv-x="307" 
d="M65 388q-14 4 -4 25q2 5 3 5t-1 -5q0 -2 -1.5 -6.5t-2 -6.5t1 -4t5.5 -3q16 -1 30.5 25.5t8.5 41.5q-6 16 -24 0.5t-12 -30.5q4 -2 5.5 -7t-1.5 -8q-14 10 -9 28t19.5 25t29.5 -4q11 -14 9 -33.5t-19 -34.5t-38 -8zM198 80q-31 -29 -49 -6q-12 12 -6.5 39t16 50.5l22 50
t12.5 37.5q0 11 -14 30q-8 10 -12 4q-13 -20 -42.5 -50.5t-48.5 -31.5q-24 -2 -22 42q2 53 33 87q18 20 40 20q8 -1 12.5 -5t5.5 -12t0.5 -14t-2.5 -17t-3 -15q-2 -15 3.5 -15t8.5 13q21 77 -32 79q-72 3 -106 -61q-27 -50 -11 -93.5t62 -28.5q39 13 87 68q-1 -1 -7 -15
t-10 -26l-10.5 -30.5t-8 -34t-1.5 -31.5t7 -29t20 -20q33 -17 62 8q15 13 30.5 35t31.5 53l25 49.5l24.5 53t16.5 36.5h-10q-6 -12 -9 -20q-70 -160 -115 -200z" />
    <glyph glyph-name="ae" unicode="&#xe6;" horiz-adv-x="392" 
d="M400 300h7q-32 -86 -75 -145.5t-85 -53.5q-12 1 -23 7q-58 -53 -81 -38q-13 8 -19.5 21t-7 29t1.5 31.5t8 34l10 30t10.5 25.5t6.5 15q-81 -91 -127 -67q-31 17 -26 70q5 61 52 93q30 21 69 19q53 -2 32 -79q-3 -13 -8.5 -13t-3.5 15q1 4 3 15t2.5 17t-0.5 14t-5.5 12
t-12.5 5q-39 1 -62 -56q-21 -51 -7 -81q6 -13 18 -12q19 1 48.5 31.5t42.5 50.5q2 3 6.5 0t9.5 -11q26 68 82 81q18 4 32.5 -3.5t9.5 -28.5q-4 -24 -28 -40.5t-44 -0.5q-18 -46 -16.5 -105.5t27.5 -68.5q23 -7 47.5 11t46.5 56.5t33.5 62t25.5 57.5zM150 79q15 -11 65 33
q-42 34 -45 85q-11 -22 -16.5 -36t-11.5 -32t-4 -30.5t12 -19.5zM276 348q-20 -11 -35 -53q16 -14 38 0t24 34q1 13 -8 18.5t-19 0.5z" />
    <glyph glyph-name="ccedilla" unicode="&#xe7;" horiz-adv-x="227" 
d="M10 92q-32 22 -36.5 68.5t12 91.5t47 80t60.5 37q21 1 32.5 -7.5t15.5 -33.5t-9 -72q-3 -13 -7 -14q-2 -1 -3 3t1 14q4 17 5.5 31t1.5 31.5t-8 25t-23 2.5q-17 -8 -44 -64.5t-38.5 -109t5.5 -74.5q22 -16 54 -1q37 18 86.5 81.5t82.5 118.5h10l-39.5 -59l-38.5 -53
t-49 -57.5t-45 -35.5q-14 -9 -33.5 -11t-32.5 4q-3 -12 0 -14q44 -5 43 -28q0 -20 -28 -29q-21 -7 -45 -2q-6 1 -7 3l3 2q2 1 6 0q37 -4 51 17q13 19 -14 30q-5 2 -11 3q-10 0 -5 22z" />
    <glyph glyph-name="egrave" unicode="&#xe8;" horiz-adv-x="209" 
d="M224 300h7q-32 -86 -75 -145.5t-85 -53.5t-61.5 44.5t-15 82.5t30.5 83.5t65 48.5q18 4 32.5 -3.5t9.5 -28.5q-4 -24 -28 -40.5t-44 -0.5q-18 -46 -16.5 -105.5t27.5 -68.5q23 -7 47.5 11t46.5 56.5t33.5 62t25.5 57.5zM100 348q-20 -11 -35 -53q16 -13 36.5 0.5
t22.5 33.5q1 13 -6.5 18.5t-17.5 0.5zM29 448h26l59 -58l-25 -1z" />
    <glyph glyph-name="eacute" unicode="&#xe9;" horiz-adv-x="209" 
d="M224 300h7q-32 -86 -75 -145.5t-85 -53.5t-61.5 44.5t-15 82.5t30.5 83.5t65 48.5q18 4 32.5 -3.5t9.5 -28.5q-4 -24 -28 -40.5t-44 -0.5q-18 -46 -16.5 -105.5t27.5 -68.5q23 -7 47.5 11t46.5 56.5t33.5 62t25.5 57.5zM100 348q-20 -11 -35 -53q16 -13 36.5 0.5
t22.5 33.5q1 13 -6.5 18.5t-17.5 0.5zM103 443h24l-56 -56l-24 1z" />
    <glyph glyph-name="ecircumflex" unicode="&#xea;" horiz-adv-x="209" 
d="M224 300h7q-32 -86 -75 -145.5t-85 -53.5t-61.5 44.5t-15 82.5t30.5 83.5t65 48.5q18 4 32.5 -3.5t9.5 -28.5q-4 -24 -28 -40.5t-44 -0.5q-18 -46 -16.5 -105.5t27.5 -68.5q23 -7 47.5 11t46.5 56.5t33.5 62t25.5 57.5zM100 348q-20 -11 -35 -53q16 -13 36.5 0.5
t22.5 33.5q1 13 -6.5 18.5t-17.5 0.5zM81 452l15 -1l58 -63l-23 1l-42 47l-40 -48h-20z" />
    <glyph glyph-name="edieresis" unicode="&#xeb;" horiz-adv-x="209" 
d="M224 300h7q-32 -86 -75 -145.5t-85 -53.5t-61.5 44.5t-15 82.5t30.5 83.5t65 48.5q18 4 32.5 -3.5t9.5 -28.5q-4 -24 -28 -40.5t-44 -0.5q-18 -46 -16.5 -105.5t27.5 -68.5q23 -7 47.5 11t46.5 56.5t33.5 62t25.5 57.5zM100 348q-20 -11 -35 -53q16 -13 36.5 0.5
t22.5 33.5q1 13 -6.5 18.5t-17.5 0.5zM62 424q3 -11 -3 -20q-7 -10 -16 -10q-8 0 -13 10q-3 10 3 20q6 9 16 9q9 0 13 -9zM140 422q3 -10 -2 -20q-6 -9 -16 -9t-13 10q-4 9 3 19q6 9 16 9q9 0 12 -9z" />
    <glyph glyph-name="igrave" unicode="&#xec;" horiz-adv-x="139" 
d="M72 361q-52 -178 -19 -206q17 -14 31 -4q19 12 37.5 47t26.5 59t12 43h9q-36 -126 -78 -155q-27 -19 -59 -2q-28 15 -32 61.5t5.5 88t22.5 73.5q1 2 8 4.5t15 3.5t14.5 -2t6.5 -11zM24 461h22l49 -49h-21z" />
    <glyph glyph-name="iacute" unicode="&#xed;" horiz-adv-x="139" 
d="M72 361q-52 -178 -19 -206q17 -14 31 -4q19 12 37.5 47t26.5 59t12 43h9q-36 -126 -78 -155q-27 -19 -59 -2q-28 15 -32 61.5t5.5 88t22.5 73.5q1 2 8 4.5t15 3.5t14.5 -2t6.5 -11zM88 471h27l-61 -61l-26 1z" />
    <glyph glyph-name="icircumflex" unicode="&#xee;" horiz-adv-x="139" 
d="M72 361q-52 -178 -19 -206q17 -14 31 -4q19 12 37.5 47t26.5 59t12 43h9q-36 -126 -78 -155q-27 -19 -59 -2q-28 15 -32 61.5t5.5 88t22.5 73.5q1 2 8 4.5t15 3.5t14.5 -2t6.5 -11zM50 457l14 -1l55 -51l-22 1l-40 38l-38 -39h-19z" />
    <glyph glyph-name="idieresis" unicode="&#xef;" horiz-adv-x="139" 
d="M72 361q-52 -178 -19 -206q17 -14 31 -4q19 12 37.5 47t26.5 59t12 43h9q-36 -126 -78 -155q-27 -19 -59 -2q-28 15 -32 61.5t5.5 88t22.5 73.5q1 2 8 4.5t15 3.5t14.5 -2t6.5 -11zM40 442q3 -9 -2 -19q-5 -8 -16 -8q-9 0 -12 9q-3 10 3 18q5 9 15 9q9 0 12 -9zM115 441
q3 -10 -3 -19q-4 -9 -15 -9q-9 0 -12 10q-4 9 3 18q4 9 15 9q7 0 12 -9z" />
    <glyph glyph-name="eth" unicode="&#xf0;" horiz-adv-x="352" 
d="M260 747q2 -5 -6 -10l-78 -68q26 -23 59 -56q39 -22 52.5 -87.5t8.5 -124.5t-17 -114q78 -30 92 -135l-5 -1q-13 103 -88 132q-50 -199 -144 -234q-22 -6 -39.5 3.5t-25.5 28.5l-12 9q-40 46 -30 195q10 150 62 252q40 78 93 87q19 0 28 -1l-42 40l-77 -66
q-11 -11 -14 -7q-1 6 4 10l81 69l-66 62q-7 7 -5 11q0 3 1 3q2 2 11 -5l67 -64l76 65q11 9 14 6zM233 294l6.5 33t7.5 39.5l6.5 39t5 42.5t1 39.5t-3 40t-9.5 33t-16 30.5q-17 23 -37.5 25.5t-39 -11t-33.5 -31.5t-27 -40q-51 -105 -61 -249q-10 -147 30 -192
q-20 80 34.5 146.5t135.5 54.5zM70 89q37 -20 98 72q3 4 5.5 1.5t0.5 -5.5q-60 -90 -100 -78q12 -19 30 -23.5t35 9.5q26 22 51 87.5t41 136.5q-80 11 -132 -55t-29 -145z" />
    <glyph glyph-name="ntilde" unicode="&#xf1;" horiz-adv-x="230" 
d="M49 314q2 -20 -8.5 -62.5t-11.5 -48.5q59 128 115 130q22 1 7 -72q-3 -16 -11 -50q-25 -102 -14 -117q7 -9 27 4q10 6 20 18.5t18 26.5t16 31.5t14 33l12 32.5t9 28l6 22l3 10h10q-50 -170 -99 -208q-21 -14 -37 -13q-36 3 -35.5 51.5t15.5 103t11 60.5q-14 24 -58 -57
q-43 -80 -45 -83q-7 -9 -10 -8q-17 8 -13.5 52.5t25.5 106.5q16 9 34 9zM157 416q-8 -19 -26.5 -18t-37.5 12.5t-37.5 13.5t-25.5 -17q-3 -9 -5 -4t0 12q8 22 27.5 21t38.5 -13t37 -14t24 18q2 7 5 0q1 -6 0 -11z" />
    <glyph glyph-name="ograve" unicode="&#xf2;" horiz-adv-x="176" 
d="M109 349q26 -8 11 -48q-5 -15 -9 -16q-3 0 0 11q1 4 3.5 11.5t3.5 11t0.5 8t-3.5 7t-9 4.5q-36 2 -64 -54t-16 -88q11 -29 43 -7q30 21 35 52q1 10 -2 19q-10 5 -14 14.5t3 17.5q12 -9 19 -25q22 -8 49.5 1t32.5 32h9q-4 -27 -33.5 -38.5t-55.5 -4.5q5 -43 -30 -71t-71 2
q-20 17 -20.5 48.5t13.5 60t43 45.5t62 7zM27 437h22l52 -52h-22z" />
    <glyph glyph-name="oacute" unicode="&#xf3;" horiz-adv-x="176" 
d="M109 349q26 -8 11 -48q-5 -15 -9 -16q-3 0 0 11q1 4 3.5 11.5t3.5 11t0.5 8t-3.5 7t-9 4.5q-36 2 -64 -54t-16 -88q11 -29 43 -7q30 21 35 52q1 10 -2 19q-10 5 -14 14.5t3 17.5q12 -9 19 -25q22 -8 49.5 1t32.5 32h9q-4 -27 -33.5 -38.5t-55.5 -4.5q5 -43 -30 -71t-71 2
q-20 17 -20.5 48.5t13.5 60t43 45.5t62 7zM101 428h19l-45 -44l-18 1z" />
    <glyph glyph-name="ocircumflex" unicode="&#xf4;" horiz-adv-x="176" 
d="M109 349q26 -8 11 -48q-5 -15 -9 -16q-3 0 0 11q1 4 3.5 11.5t3.5 11t0.5 8t-3.5 7t-9 4.5q-36 2 -64 -54t-16 -88q11 -29 43 -7q30 21 35 52q1 10 -2 19q-10 5 -14 14.5t3 17.5q12 -9 19 -25q22 -8 49.5 1t32.5 32h9q-4 -27 -33.5 -38.5t-55.5 -4.5q5 -43 -30 -71t-71 2
q-20 17 -20.5 48.5t13.5 60t43 45.5t62 7zM77 443l11 -1l46 -42l-18 1l-33 31l-31 -32h-16z" />
    <glyph glyph-name="otilde" unicode="&#xf5;" horiz-adv-x="176" 
d="M109 349q26 -8 11 -48q-5 -15 -9 -16q-3 0 0 11q1 4 3.5 11.5t3.5 11t0.5 8t-3.5 7t-9 4.5q-36 2 -64 -54t-16 -88q11 -29 43 -7q30 21 35 52q1 10 -2 19q-10 5 -14 14.5t3 17.5q12 -9 19 -25q22 -8 49.5 1t32.5 32h9q-4 -27 -33.5 -38.5t-55.5 -4.5q5 -43 -30 -71t-71 2
q-20 17 -20.5 48.5t13.5 60t43 45.5t62 7zM125 409q-8 -20 -30 -13t-40 17t-30 -12q-3 -8 -4 -2q-1 5 1 9q6 17 21 16.5t30 -10t29 -11t19 14.5q2 6 4 0q1 -5 0 -9z" />
    <glyph glyph-name="odieresis" unicode="&#xf6;" horiz-adv-x="176" 
d="M109 349q26 -8 11 -48q-5 -15 -9 -16q-3 0 0 11q1 4 3.5 11.5t3.5 11t0.5 8t-3.5 7t-9 4.5q-36 2 -64 -54t-16 -88q11 -29 43 -7q30 21 35 52q1 10 -2 19q-10 5 -14 14.5t3 17.5q12 -9 19 -25q22 -8 49.5 1t32.5 32h9q-4 -27 -33.5 -38.5t-55.5 -4.5q5 -43 -30 -71t-71 2
q-20 17 -20.5 48.5t13.5 60t43 45.5t62 7zM67 411q2 -9 -2 -15q-4 -7 -13 -7q-7 0 -10 8q-3 6 2 14t13 8q7 0 10 -8zM128 410q3 -8 -1 -15t-13 -7q-7 0 -10 7t2 15q4 7 13 7q8 0 9 -7z" />
    <glyph glyph-name="divide" unicode="&#xf7;" horiz-adv-x="330" 
d="M187 307q5 -14 -3 -26t-21 -12t-17 13q-5 12 4 25q8 12 21 12q11 0 16 -12zM161 137q5 -14 -3 -26t-21 -12t-17 13q-5 12 4 25q8 12 21 12q11 0 16 -12zM304 227l6 -17h-293l-6 17h293z" />
    <glyph glyph-name="oslash" unicode="&#xf8;" horiz-adv-x="176" 
d="M109 349q26 -8 11 -48q-5 -15 -9 -16q-3 0 0 11q1 4 3.5 11.5t3.5 11t0.5 8t-3.5 7t-9 4.5q-5 0 -7 -1l-56 -156q21 -3 44.5 26t14.5 53q-10 5 -14 14.5t3 17.5q12 -9 19 -25q22 -8 49.5 1t32.5 32h9q-4 -27 -33.5 -38.5t-55.5 -4.5q4 -33 -19 -60.5t-53 -23.5l-13 -37
h-16l15 41q-10 6 -15 11q-18 16 -20 44.5t9 55.5t35.5 46t53.5 18l32 87h15l-32 -89q1 -1 5 -1zM26 196q2 -6 4 -8l52 143q-29 -17 -47.5 -63.5t-8.5 -71.5z" />
    <glyph glyph-name="ugrave" unicode="&#xf9;" horiz-adv-x="286" 
d="M46 362q27 -45 -13 -157q-12 -39 -7 -39q22 4 62 79t53 84q6 4 13 -4t10 -21q8 -28 -8 -127q-1 -5 -2.5 -15.5l-2.5 -17.5t-2 -16.5t-1 -15t1 -11.5t4 -8t8 -1q33 8 65 77.5t48 130.5h10q-9 -35 -26.5 -81.5t-46 -91t-53.5 -44.5q-14 0 -25 12.5t-14 30.5q-10 58 10 178
q-3 -5 -15 -28q-63 -122 -93 -127q-11 -1 -19 10q-9 13 -11 35t0 39.5t7 48.5t7 45q1 14 15 26t26 9zM48 474h34l78 -77l-33 -1z" />
    <glyph glyph-name="uacute" unicode="&#xfa;" horiz-adv-x="286" 
d="M46 362q27 -45 -13 -157q-12 -39 -7 -39q22 4 62 79t53 84q6 4 13 -4t10 -21q8 -28 -8 -127q-1 -5 -2.5 -15.5l-2.5 -17.5t-2 -16.5t-1 -15t1 -11.5t4 -8t8 -1q33 8 65 77.5t48 130.5h10q-9 -35 -26.5 -81.5t-46 -91t-53.5 -44.5q-14 0 -25 12.5t-14 30.5q-10 58 10 178
q-3 -5 -15 -28q-63 -122 -93 -127q-11 -1 -19 10q-9 13 -11 35t0 39.5t7 48.5t7 45q1 14 15 26t26 9zM136 468h27l-64 -70l-28 1z" />
    <glyph glyph-name="ucircumflex" unicode="&#xfb;" horiz-adv-x="286" 
d="M46 362q27 -45 -13 -157q-12 -39 -7 -39q22 4 62 79t53 84q6 4 13 -4t10 -21q8 -28 -8 -127q-1 -5 -2.5 -15.5l-2.5 -17.5t-2 -16.5t-1 -15t1 -11.5t4 -8t8 -1q33 8 65 77.5t48 130.5h10q-9 -35 -26.5 -81.5t-46 -91t-53.5 -44.5q-14 0 -25 12.5t-14 30.5q-10 58 10 178
q-3 -5 -15 -28q-63 -122 -93 -127q-11 -1 -19 10q-9 13 -11 35t0 39.5t7 48.5t7 45q1 14 15 26t26 9zM88 451l14 -1l56 -51h-22l-41 39l-38 -40h-20z" />
    <glyph glyph-name="udieresis" unicode="&#xfc;" horiz-adv-x="286" 
d="M46 362q27 -45 -13 -157q-12 -39 -7 -39q22 4 62 79t53 84q6 4 13 -4t10 -21q8 -28 -8 -127q-1 -5 -2.5 -15.5l-2.5 -17.5t-2 -16.5t-1 -15t1 -11.5t4 -8t8 -1q33 8 65 77.5t48 130.5h10q-9 -35 -26.5 -81.5t-46 -91t-53.5 -44.5q-14 0 -25 12.5t-14 30.5q-10 58 10 178
q-3 -5 -15 -28q-63 -122 -93 -127q-11 -1 -19 10q-9 13 -11 35t0 39.5t7 48.5t7 45q1 14 15 26t26 9zM66 436q4 -11 -2 -22q-8 -11 -19 -11t-15 12q-4 11 4 21q6 11 18 11q11 0 14 -11zM157 434q5 -11 -3 -22q-6 -10 -18 -10t-15 11q-5 11 3 21q8 11 19 11q9 0 14 -11z" />
    <glyph glyph-name="yacute" unicode="&#xfd;" horiz-adv-x="258" 
d="M112 104q4 22 8.5 81t-0.5 90l-8.5 -17.5l-11.5 -23.5t-14.5 -24.5t-17.5 -20.5t-20 -11.5t-23 2.5q-19 9 -23.5 38t-0.5 52.5t10 45.5q5 14 18 17.5t24 -0.5t14 -8q-1 -6 -6.5 -23l-11.5 -34t-10.5 -36.5t-4.5 -30.5t6 -16q17 -10 41 32.5t40 85.5q13 34 23 -1
q1 -4 2 -10q15 -91 10 -157q80 65 119 165h9q-37 -107 -128 -178q-2 -61 -24.5 -139t-67.5 -148.5t-99 -85.5q-38 -11 -58.5 9t-16.5 58q5 37 24 78q27 60 82.5 120.5t115.5 89.5zM-36 -230q40 41 82.5 133.5t63.5 190.5q-57 -29 -109.5 -87.5t-78.5 -116.5q-20 -41 -23 -75
q-4 -33 18.5 -50.5t46.5 5.5zM129 437h29l-68 -67l-28 1z" />
    <glyph glyph-name="thorn" unicode="&#xfe;" horiz-adv-x="152" 
d="M-42 247q3 -26 18 -6q5 6 15 21q40 60 66 69q16 5 32 -4q38 -26 31.5 -75.5t-42.5 -88.5q40 -6 88 33q46 43 62 104h10q-16 -67 -66 -110q-53 -46 -101 -35q-13 -11 -32 -18.5t-38 -9.5t-34 7t-18 30q-3 15 6.5 27.5t23.5 16.5q30 9 59 -23q18 25 29 53t7.5 50.5
t-25.5 25.5q-7 1 -25 -20.5t-33 -43.5l-15 -23q-27 -25 -38 26l-97 -437l-36 -1l130 546q7 73 29.5 143.5t65.5 127t96 69.5q42 8 59 -14q15 -18 12 -58q-4 -35 -25 -83q-31 -66 -85 -125.5t-119 -89.5q-8 -42 -10 -84zM126 679q-49 -47 -92.5 -143t-63.5 -194q62 30 113 87
t81 121q19 43 24 80q3 36 -10 52q-12 11 -26 9t-26 -12zM32 178q-26 29 -51 21q-28 -9 -23 -34q6 -22 22.5 -19t29.5 12t22 20z" />
    <glyph glyph-name="ydieresis" unicode="&#xff;" horiz-adv-x="258" 
d="M112 104q4 22 8.5 81t-0.5 90l-8.5 -17.5l-11.5 -23.5t-14.5 -24.5t-17.5 -20.5t-20 -11.5t-23 2.5q-19 9 -23.5 38t-0.5 52.5t10 45.5q5 14 18 17.5t24 -0.5t14 -8q-1 -6 -6.5 -23l-11.5 -34t-10.5 -36.5t-4.5 -30.5t6 -16q17 -10 41 32.5t40 85.5q13 34 23 -1
q1 -4 2 -10q15 -91 10 -157q80 65 119 165h9q-37 -107 -128 -178q-2 -61 -24.5 -139t-67.5 -148.5t-99 -85.5q-38 -11 -58.5 9t-16.5 58q5 37 24 78q27 60 82.5 120.5t115.5 89.5zM-36 -230q40 41 82.5 133.5t63.5 190.5q-57 -29 -109.5 -87.5t-78.5 -116.5q-20 -41 -23 -75
q-4 -33 18.5 -50.5t46.5 5.5zM70 412q5 -14 -3 -26q-7 -12 -21 -12q-13 0 -17 13q-5 12 4 25q7 12 21 12q12 0 16 -12zM173 410q5 -14 -3 -26t-21 -12t-17 13q-5 12 4 25q8 12 21 12q11 0 16 -12z" />
    <glyph glyph-name="dotlessi" unicode="&#x131;" horiz-adv-x="139" 
d="M72 361q-52 -178 -19 -206q17 -14 31 -4q19 12 37.5 47t26.5 59t12 43h9q-36 -126 -78 -155q-27 -19 -59 -2q-28 15 -32 61.5t5.5 88t22.5 73.5q1 2 8 4.5t15 3.5t14.5 -2t6.5 -11z" />
    <glyph glyph-name="Lslash" unicode="&#x141;" horiz-adv-x="462" 
d="M154 189l-16 -38q21 -8 59 -27.5t63.5 -29.5t58.5 -16.5t62 6t54 43.5l24 -25q-27 -33 -59 -44.5t-68 -2.5t-65.5 22.5t-70 35.5t-63.5 31q-43 -82 -95 -82q-15 2 -24 8q-9 5 -14 16q-10 21 2 46q29 54 111 29q2 6 4.5 17.5t3.5 15.5q19 88 32 169l-94 -52l-13 12l111 61
q9 53 24 153.5l22 146.5q-84 -17 -133 -59t-49 -126h-9q0 86 49.5 130t134.5 63q24 5 62 10q-5 -132 -37 -283l82 45l13 -12l-100 -55q-26 -114 -62 -208zM110 153q-74 23 -100 -26q-11 -21 -2 -37q4 -10 12 -14q4 -3 18 -5q49 0 72 82z" />
    <glyph glyph-name="lslash" unicode="&#x142;" 
d="M17 148q-11 38 -14 88l-101 -49l-13 13l113 55q-4 136 52 264.5t140 169.5q34 17 51 0q26 -26 -1 -108q-26 -73 -76 -146.5t-113 -113.5q-6 -30 -8 -45l106 52l12 -13l-121 -59q-8 -63 -2 -105q5 -39 27 -69t55 -11q25 15 47 49q26 39 51.5 96.5t33.5 83.5h9
q-42 -120 -86 -185q-30 -40 -51 -52q-37 -20 -68.5 11t-42.5 74zM202 679q-37 -36 -79 -137t-66 -209q60 40 109 111.5t70 138.5q25 77 3 99q-10 7 -20 5t-17 -8z" />
    <glyph glyph-name="OE" unicode="&#x152;" horiz-adv-x="688" 
d="M622 643q-17 -23 -49.5 -41t-63.5 -23q-16 -52 -6 -101q26 1 51.5 -8t35.5 -28q11 -18 0 -24q-22 -15 -53 4t-41 43q-47 -11 -83.5 -54t-53.5 -96.5t-15.5 -110t24.5 -93.5q21 -33 57 -42q144 -35 280 228h7q-52 -99 -94.5 -148.5t-89.5 -74.5q-43 -24 -103 -14
q-106 17 -138 108q-1 -2 -3.5 -8t-4.5 -9q-47 -90 -108 -100q-26 -3 -49 6q-40 15 -61 61.5t-22 107.5t4 114.5t16 100.5q-90 35 -106 157l5 1q14 -119 102 -153q14 58 34 108.5t55.5 98.5t77.5 63q25 8 45 -3t30 -34l14 -10q22 -25 31 -86.5t3 -139.5l-3 -30q61 63 143 64
q-16 51 -10 99q-18 0 -34 3l3 5q22 -2 32 -2q6 49 37.5 92t73.5 37q30 -4 39 -24.5t-9 -43.5zM112 433q-1 -7 -8.5 -44t-10 -53.5l-7.5 -52t-4.5 -57t2 -49.5t9.5 -49t21 -38q21 -27 44.5 -30.5t45 12.5t39 37t30.5 46l10 23q-16 56 -0.5 118t56.5 109q2 12 4 38
q12 171 -35 223q24 -93 -39 -169.5t-157 -63.5zM301 670q-44 24 -114 -84q-5 -6 -7 1q0 2 1 5q68 103 115 90q-13 22 -34 27t-41 -10q-55 -48 -107 -260q61 -8 111.5 25t72 90t3.5 116zM511 585q66 15 104 61q16 20 7.5 36t-31.5 8q-24 -8 -47.5 -41.5t-32.5 -63.5zM506 466
q7 -20 32 -36t45 -8q9 5 3 18q-10 17 -34 23.5t-46 2.5z" />
    <glyph glyph-name="oe" unicode="&#x153;" horiz-adv-x="385" 
d="M400 300h7q-32 -86 -75 -145.5t-85 -53.5q-51 8 -69 60t1 104q-35 -19 -67 -8q5 -43 -30 -71t-71 2q-20 17 -20.5 48.5t13.5 60t43 45.5t62 7q26 -8 11 -48q-5 -15 -9 -16q-3 0 0 11q1 4 3.5 11.5t3.5 11t0.5 8t-3.5 7t-9 4.5q-36 2 -64 -54t-16 -88q11 -29 43 -7
q30 21 35 52q1 10 -2 19q-10 5 -14 14.5t3 17.5q12 -9 19 -25q14 -6 36.5 -3t36.5 14q28 69 83 82q18 4 32.5 -3.5t9.5 -28.5q-4 -24 -28 -40.5t-44 -0.5q-18 -46 -16.5 -105.5t27.5 -68.5q23 -7 47.5 11t46.5 56.5t33.5 62t25.5 57.5zM276 348q-20 -11 -35 -53q16 -14 38 0
t24 34q1 13 -8 18.5t-19 0.5z" />
    <glyph glyph-name="Scaron" unicode="&#x160;" horiz-adv-x="522" 
d="M300 490l8 4q28 -49 99.5 -49.5t89.5 51.5q11 45 -24.5 84t-98 58t-132 23.5t-132.5 -18.5t-92 -70q-16 -26 -16.5 -48.5t12.5 -41t33 -35t48 -33l54.5 -31.5t54.5 -35t46 -40q59 -1 117 -21.5t83 -62.5l-8 -4q-22 38 -76 57.5t-108 20.5q31 -46 31.5 -98t-30 -99
t-77.5 -60q-27 -7 -63 -4q-34 3 -58 18q-45 27 -45 76q0 57 49 103q46 41 114 60q-18 16 -50.5 39.5l-53 39t-43.5 40t-32 46.5t-8 52.5t19 64.5q55 108 199 124q119 14 225 -37q91 -43 103 -104q7 -38 -21 -74q-40 -50 -109.5 -51t-107.5 55zM187 288q-74 -20 -116 -59
q-46 -43 -46 -97q0 -46 40 -69q23 -13 55 -16t60 4q53 17 67 63t-5 94t-55 80zM138 878q5 0 19 -13q25 -24 64 -73q34 28 90 56q61 32 79 32q4 0 5 -3q-1 -2 -7 -5q-60 -30 -107 -70q-51 -41 -65 -74q-3 7 -7 19q-22 64 -68 124q-4 7 -3 7z" />
    <glyph glyph-name="scaron" unicode="&#x161;" horiz-adv-x="187" 
d="M56 405q11 -19 -25 -91q6 -11 21 -33t25.5 -41t16.5 -37q87 35 107 97h10q-22 -69 -115 -106q9 -39 -8 -87.5t-55 -53.5q-31 -4 -35 32q-5 43 24 79q15 18 34 25q-5 18 -20 46l-24.5 47t-15.5 49t6 51q5 11 13.5 20.5t20 14t20.5 -11.5zM59 180q-38 -16 -49 -67
q-8 -40 11 -48q4 -2 10 0q24 6 30.5 49t-2.5 66zM27 324q28 65 22 77q-9 16 -20 -8q-16 -36 -3 -66q0 -2 1 -3zM18 525q3 0 11 -8q17 -16 38 -43q24 18 54 33q35 19 48 19q2 0 3 -2l-2 -1q-1 -1 -3 -2q-34 -17 -64 -41q-29 -24 -39 -45q-1 2 -2.5 6t-1.5 6q-14 41 -40 74
q-3 4 -2 4z" />
    <glyph glyph-name="Ydieresis" unicode="&#x178;" horiz-adv-x="419" 
d="M89 502q-7 -37 -9.5 -58t-4.5 -58t5.5 -65.5t24.5 -49.5q20 -23 54 -17q72 12 108 144q32 218 77 231q15 4 32 -11q27 -20 52 -102q1 -6 0 -10t-3.5 -2t-4.5 10q-21 77 -50 99q-11 7 -19 -8.5t-14.5 -55.5t-11 -81l-11.5 -105t-13 -108q31 -18 52 -43l-6 -5
q-23 28 -49 39q-34 -254 -104 -273q-28 -7 -44 9q-13 14 -13 50t12 77q34 115 100 143q3 28 14 112q-18 -49 -41 -79t-62 -39q-51 -12 -82 14.5t-38.5 74t-6 92t9.5 80.5q-77 20 -99 100h8q23 -74 92 -93q40 156 132 189q33 12 55.5 -5t28.5 -50q10 -63 -45.5 -106.5
t-125.5 -39.5zM92 508q65 -3 117.5 39t43.5 100q-4 20 -14 33.5t-26.5 19.5t-38.5 -8q-47 -27 -82 -184zM248 242q-58 -28 -90 -137q-12 -39 -12.5 -71.5t11.5 -47.5q9 -9 20 -5q23 7 38 71t33 190zM300 748q5 -14 -3 -26q-7 -12 -21 -12q-13 0 -17 13q-5 12 4 25
q7 12 21 12q12 0 16 -12zM403 746q5 -14 -3 -26t-21 -12t-17 13q-5 12 4 25q8 12 21 12q12 0 16 -12z" />
    <glyph glyph-name="Zcaron" unicode="&#x17d;" horiz-adv-x="449" 
d="M348 690q-43 0 -87 -6.5t-92 -21t-82.5 -45.5t-42.5 -73l-14 1q43 165 375 151q-48 -195 -136 -355q70 -42 95 -8l7 -5q-12 -17 -30 -19.5t-35.5 4.5t-41.5 21q-75 -138 -157 -215q32 -2 74.5 -23t76 -43t76.5 -34.5t79 -0.5l-11 -28q-37 -12 -80.5 4t-76.5 42.5t-75 50
t-74 23.5q-2 -2 -18 -16q-35 -31 -63 -30q-10 1 -10.5 3t5.5 9q25 27 56 38q82 103 152 247q-20 13 -33 19t-31 4.5t-26 -20.5l-8 4q21 55 102 2q17 35 36 81.5l29.5 73.5t33 89.5t27.5 75.5zM113 852q5 0 19 -13q25 -24 64 -73q34 28 90 56q61 32 79 32q3 0 5 -3
q-1 -2 -7 -5q-60 -30 -107 -70q-51 -41 -65 -74q-3 7 -7 19q-22 64 -68 124q-4 7 -3 7z" />
    <glyph glyph-name="zcaron" unicode="&#x17e;" horiz-adv-x="268" 
d="M28 301q12 1 41.5 15.5t43.5 16.5q26 3 41 -10t12 -48q-4 -42 -42.5 -94.5t-78.5 -71.5q-9 -5 3 -12q30 -17 42 -29l42 33.5l42.5 34t35.5 32.5t35 38.5t25.5 41.5t22.5 52h8q-21 -72 -64 -118t-142 -119q34 -41 37 -112t-29 -132.5t-89 -71.5q-39 -7 -53 29
q-26 79 40 194q27 45 76 88q-8 11 -23.5 24.5t-21.5 21.5t-1 15q127 154 87 196q-8 9 -53.5 -7.5t-59.5 -11.5q-35 11 -22 62q10 40 34 54q18 10 28 -10q2 -8 2.5 -14.5t-3 -22t-6 -25l-6 -23t-4.5 -16.5zM82 51q-46 -39 -75 -87q-26 -42 -40.5 -96.5t1.5 -88.5
q14 -35 45 -19q26 12 46 53.5t28 88.5t7 90t-12 59zM39 396q-21 -6 -31 -48t11 -47q1 3 5.5 19l8 29t6 27.5t0.5 19.5zM13 542q5 0 19 -13q25 -24 64 -73q34 28 90 56q61 32 79 32q3 0 5 -3q-1 -2 -7 -5q-60 -30 -107 -70q-51 -41 -65 -74q-3 7 -7 19q-22 64 -68 124
q-4 7 -3 7z" />
    <glyph glyph-name="florin" unicode="&#x192;" horiz-adv-x="191" 
d="M20 123q-24 74 -16.5 166t31 175t67.5 145t94 76q38 11 58.5 -9t16.5 -58q-5 -37 -24 -78q-27 -60 -77 -115t-110 -84q-17 -88 -18 -145q137 39 165 104h9q-26 -71 -174 -113v-2q41 -18 84 -79.5t22 -97.5q-41 -25 -76.5 17t-51.5 98zM197 666q-39 -40 -76 -127t-59 -188
q57 29 103.5 82t73.5 111q20 41 23 75q4 33 -18.5 51.5t-46.5 -4.5zM42 176q2 -50 39 -121q35 -66 55 -49q3 3 5 7q17 34 -22.5 90.5t-76.5 72.5z" />
    <glyph glyph-name="circumflex" unicode="&#x2c6;" horiz-adv-x="181" 
d="M72 543l20 -1l78 -72l-31 1l-56 54l-54 -56h-28z" />
    <glyph glyph-name="caron" unicode="&#x2c7;" horiz-adv-x="268" 
d="M-2 857q5 0 19 -13q25 -24 64 -73q34 28 90 56q61 32 79 32q4 0 5 -3q-1 -2 -7 -5q-60 -30 -107 -70q-51 -41 -65 -74q-3 7 -7 19q-22 64 -68 124q-4 7 -3 7z" />
    <glyph glyph-name="ogonek" unicode="&#x2db;" horiz-adv-x="134" 
d="M82 48q6 -33 -9 -35q-46 -10 -45 -37q1 -23 35 -36q23 -9 52 -5q12 2 14 -2q1 -2 -4 -4q-3 -1 -7 -2q-62 -14 -100 18q-29 24 -10 49q16 20 63 26q4 1 -2 26q-1 6 1.5 9t6.5 1t5 -8z" />
    <glyph glyph-name="tilde" unicode="&#x2dc;" horiz-adv-x="183" 
d="M167 445q-9 -24 -32.5 -22.5t-46.5 15.5t-46 16t-32 -21q-4 -12 -7 -4q-2 7 1 15q10 27 34 25.5t47.5 -16.5t46 -17t29.5 23q3 9 6 -1q2 -7 0 -13z" />
    <glyph glyph-name="hungarumlaut" unicode="&#x2dd;" horiz-adv-x="129" 
d="M19 684q0 7 7.5 11t14.5 0.5t7 -15.5q0 -26 -13 -41.5t-27 -19.5q-3 -2 -4 -0.5t2 4.5q11 11 15 29t-2 32zM93 684q0 7 7.5 11t14.5 0.5t7 -15.5q0 -26 -13 -41.5t-27 -19.5q-3 -2 -4 -0.5t2 4.5q11 11 15 29t-2 32z" />
    <glyph glyph-name="endash" unicode="&#x2013;" horiz-adv-x="330" 
d="M302 221l6 -17h-293l-6 17h293z" />
    <glyph glyph-name="emdash" unicode="&#x2014;" horiz-adv-x="440" 
d="M414 212l6 -17h-409l-6 17h409z" />
    <glyph glyph-name="quoteleft" unicode="&#x2018;" horiz-adv-x="84" 
d="M15 633q-6 19 4.5 41t32.5 26q2 1 2 -2l-1 -2q-28 -11 -22 -25q0 -2 4 -2q14 0 17.5 -13.5t-3.5 -22.5q-7 -11 -18 -11.5t-16 11.5z" />
    <glyph glyph-name="quoteright" unicode="&#x2019;" horiz-adv-x="75" 
d="M50 685q6 -19 -4.5 -41t-32.5 -26q-3 -1 -2 2l1 2q28 11 22 25q0 2 -4 2q-14 0 -17.5 13.5t3.5 22.5q7 11 18 11.5t16 -11.5z" />
    <glyph glyph-name="quotesinglbase" unicode="&#x201a;" horiz-adv-x="63" 
d="M46 96q6 -19 -4.5 -41t-32.5 -26q-3 -1 -2 2l1 2q28 11 22 25q0 2 -4 2q-14 0 -17.5 13.5t3.5 22.5q7 11 18 11.5t16 -11.5z" />
    <glyph glyph-name="quotedblleft" unicode="&#x201c;" horiz-adv-x="158" 
d="M15 633q-6 19 4.5 41t32.5 26q2 1 2 -2l-1 -2q-28 -11 -22 -25q0 -2 4 -2q14 0 17.5 -13.5t-3.5 -22.5q-7 -11 -18 -11.5t-16 11.5zM92 637q-6 19 4.5 41t32.5 26q3 1 2 -2l-1 -2q-28 -11 -22 -25q0 -2 4 -2q14 0 17.5 -13.5t-3.5 -22.5q-7 -11 -18 -11.5t-16 11.5z" />
    <glyph glyph-name="quotedblright" unicode="&#x201d;" horiz-adv-x="152" 
d="M127 689q6 -19 -4.5 -41t-32.5 -26q-2 -1 -2 2l1 2q28 11 22 25q0 2 -4 2q-14 0 -17.5 13.5t3.5 22.5q7 11 18 11.5t16 -11.5zM50 685q6 -19 -4.5 -41t-32.5 -26q-3 -1 -2 2l1 2q28 11 22 25q0 2 -4 2q-14 0 -17.5 13.5t3.5 22.5q7 11 18 11.5t16 -11.5z" />
    <glyph glyph-name="quotedblbase" unicode="&#x201e;" horiz-adv-x="137" 
d="M45 96q6 -19 -4.5 -41t-32.5 -26q-2 -1 -2 2l1 2q28 11 22 25q0 2 -4 2q-14 0 -17.5 13.5t3.5 22.5q7 11 18 11.5t16 -11.5zM115 97q6 -19 -4.5 -41t-32.5 -26q-2 -1 -2 2l1 2q28 11 22 25q0 2 -4 2q-14 0 -17.5 13.5t3.5 22.5q7 11 18 11.5t16 -11.5z" />
    <glyph glyph-name="daggerdbl" unicode="&#x2021;" horiz-adv-x="232" 
d="M270 414q1 -4 -4.5 -5.5t-17.5 -1.5h-152l1 -268h157q15 0 17 -8q0 -7 -23 -7h-151v-206l-15 -5v211h-171q-14 0 -14 7q-1 4 4.5 6t17.5 2h163v268h-171q-14 0 -15 7q0 7 23 7h163v216l14 5v-221h158q15 0 16 -7z" />
    <glyph glyph-name="ellipsis" unicode="&#x2026;" horiz-adv-x="249" 
d="M48 98q5 -14 -3 -26q-7 -12 -21 -12q-13 0 -17 13q-5 12 4 25q7 12 21 12q12 0 16 -12zM139 98q5 -14 -3 -26t-21 -12t-17 13q-5 12 4 25q8 12 21 12q11 0 16 -12zM228 98q5 -14 -3 -26q-7 -12 -21 -12q-13 0 -17 13q-5 12 4 25q7 12 21 12q12 0 16 -12z" />
    <glyph glyph-name="perthousand" unicode="&#x2030;" horiz-adv-x="465" 
d="M75 623q39 15 51 -50q13 -71 -11 -148q-17 -55 -43 -65q-21 -8 -36 5q-29 21 -33.5 78.5t16 112t56.5 67.5zM39 383q8 -26 31 -17q26 10 40 58.5t13.5 100t-11.5 75.5q-10 27 -35 17q-26 -9 -38 -59.5t-10.5 -101.5t10.5 -73zM211 318q39 15 51 -50q13 -71 -11 -148
q-17 -55 -43 -65q-21 -8 -36 5q-29 21 -33.5 78.5t16 112t56.5 67.5zM175 78q8 -26 31 -17q26 10 40 58.5t13.5 100t-11.5 75.5q-10 27 -35 17q-26 -9 -38 -59.5t-10.5 -101.5t10.5 -73zM383 318q39 15 51 -50q13 -71 -11 -148q-17 -55 -43 -65q-21 -8 -36 5
q-29 21 -33.5 78.5t16 112t56.5 67.5zM347 78q8 -26 31 -17q26 10 40 58.5t13.5 100t-11.5 75.5q-10 27 -35 17q-26 -9 -38 -59.5t-10.5 -101.5t10.5 -73zM235 626l-215 -607h-16l216 607h15z" />
    <glyph glyph-name="guilsinglleft" unicode="&#x2039;" horiz-adv-x="374" 
d="M319 36l-309 191l1 15l323 144l7 -9l-315 -140l292 -186z" />
    <glyph glyph-name="guilsinglright" unicode="&#x203a;" horiz-adv-x="353" 
d="M32 387l309 -191l-1 -15l-323 -144l-7 9l315 140l-292 186z" />
    <glyph glyph-name="fraction" unicode="&#x2044;" horiz-adv-x="232" 
d="M265 701l-245 -682h-16l246 682h15z" />
    <glyph glyph-name="Euro" unicode="&#x20ac;" horiz-adv-x="341" 
d="M309 386q1 -4 -4.5 -5.5t-17.5 -1.5h-234q-8 -76 -5 -158h237q15 0 17 -8q0 -7 -23 -7h-230q5 -78 19 -111q20 -57 68 -39q49 18 79 105h11q-34 -97 -86 -118q-45 -16 -78 11q-57 41 -70 152h-50q-14 0 -14 7q-1 4 4.5 6t17.5 2h40q-6 79 10 158h-50q-14 0 -15 7
q0 7 23 7h44q18 82 55.5 143t88.5 80q55 22 85.5 -32.5t33.5 -153.5q-10 0 -15 1q-3 92 -23 136q-10 27 -30.5 37t-45.5 -1q-75 -27 -97 -210h239q15 0 16 -7z" />
    <glyph glyph-name="trademark" unicode="&#x2122;" horiz-adv-x="574" 
d="M148 693q2 -52 -32 -205q1 -1 3.5 -4t4.5 -5q24 -33 19 -94q-2 -60 -26 -74q-11 -4 -26 4q-36 26 -6 179q-14 0 -36 -11l-2 3q22 13 39 13l16.5 71.5t17 75t8.5 48.5q-6 0 -33.5 3t-44.5 4t-45.5 1.5t-47 -2.5t-37.5 -9t-28 -18.5t-9 -29.5q0 -5 -2.5 -5t-3.5 5
q-4 39 38.5 54t110 12t138 -10t133 -7t84.5 15q9 5 8 18q-1 7 -7 6q-2 0 -7 -6q-4 -6 -6 -3q-1 2 1 5q4 8 11 10q9 1 12 -6t0.5 -16t-8.5 -13q-17 -13 -59 -16t-75 -1t-103 8zM114 482q-8 -39 -11.5 -59.5t-7 -47t-1.5 -40.5t8 -18q5 -4 12 -2q21 13 24 70q4 59 -19 91
q-1 2 -5 6zM203 348q-3 87 28 254l4.5 4.5t11 6.5t16.5 4q7 -52 -6 -119q12 30 20 47t25.5 41t35.5 31q37 16 37 -35q0 -27 -11 -78q73 182 122 201q27 11 31 -30q4 -44 -29 -224q-2 -9 -3 -16q3 -3 7 -9q25 -37 20 -107q-2 -70 -26 -81q-9 -7 -27 3q-36 31 -4 201
q-19 0 -37 -13l-3 5q21 14 40 14q4 24 10.5 54l11 52.5l9.5 47.5t7.5 42t3.5 30.5t-1.5 20t-8.5 4.5q-28 -10 -65.5 -82.5t-63.5 -144.5q-28 -134 1 -138l-1 -5q-59 6 -33 139q4 20 13 58q18 80 9 86q-3 1 -7 0q-50 -17 -102 -178q-22 -87 -10 -119q2 -7 4 -8
q-12 -4 -19.5 10.5t-9.5 30.5zM483 428q-8 -44 -11.5 -66.5t-7 -52.5t-1.5 -45.5t8 -21.5q6 -4 12 -1q20 12 24 79q5 67 -20 103q-2 4 -4 5z" />
    <glyph glyph-name="minus" unicode="&#x2212;" horiz-adv-x="356" 
d="M321 215l6 -17h-293l-6 17h293z" />
    <glyph glyph-name="a.calt" unicode="&#xe019;" horiz-adv-x="307" 
d="M198 78q31 28 62 88q18 35 31.5 76.5t-0.5 45.5q-8 2 -9 -3t5 -5l-1 2t3 0t4 -8.5t-4.5 -11.5t-11.5 -3q-9 4 -10.5 12.5t4.5 15.5q10 13 22.5 8t11.5 -21q0 -10 -7 -35q-10 -30 -30 -73q-32 -64 -64 -93q-29 -25 -62 -8q-13 7 -20 20t-7 29t1.5 31.5t8 34l10.5 30.5
t10 26t7 15q-81 -91 -127 -67q-31 17 -26 70q5 61 52 93q30 21 69 19q53 -2 32 -79q-3 -13 -8.5 -13t-3.5 15q1 4 3 15t2.5 17t-0.5 14t-5.5 12t-12.5 5q-39 1 -62 -56q-21 -51 -7 -81q6 -13 18 -12q19 1 48.5 31.5t42.5 50.5q6 10 21 -20q5 -10 5 -14q-1 -11 -12.5 -37.5
l-22 -50t-16 -50.5t6.5 -39q11 -11 24 -9t25 13z" />
    <glyph glyph-name="b.calt" unicode="&#xe01a;" horiz-adv-x="284" 
d="M33 247q3 -26 18 -6q5 6 15 21q40 60 66 69q16 5 32 -4q38 -26 31.5 -75.5t-42.5 -88.5q47 -9 95 37.5t55 98.5q2 16 -6 19q-10 3 -10 -2q0 -6 6 -6l-1 2t3 0t4 -8.5t-4.5 -11.5t-11.5 -3q-9 4 -10.5 12.5t4.5 15.5q11 14 24 8t10 -25q-10 -60 -60.5 -108.5t-104.5 -36.5
q-13 -11 -32 -18.5t-38 -9.5t-34 7t-18 30q-3 15 6.5 27.5t23.5 16.5q30 9 59 -23q18 25 29 53t7.5 50.5t-25.5 25.5q-7 1 -25 -20.5t-33 -43.5l-15 -23q-28 -25 -39 28q-12 67 5 163.5t66.5 181.5t117.5 101q42 8 59 -14q15 -18 12 -58q-4 -35 -25 -83q-31 -66 -85 -125.5
t-119 -89.5q-8 -42 -10 -84zM201 679q-49 -47 -92.5 -143t-63.5 -194q62 30 113 87t81 121q19 43 24 80q3 36 -10 52q-12 11 -26 9t-26 -12zM107 178q-26 29 -51 21q-28 -9 -23 -34q6 -22 22.5 -19t29.5 12t22 20z" />
    <glyph glyph-name="c.calt" unicode="&#xe01b;" horiz-adv-x="227" 
d="M228 271q43 63 28 73q-9 5 -12.5 -0.5t4.5 -7.5v2q1 3 4 0q4 -3 2.5 -9.5t-6.5 -10t-13 0.5q-8 6 -7 14t8 14q13 10 24 2.5t6 -22.5q-4 -15 -11 -27q-94 -158 -172 -205q-14 -9 -34.5 -11t-33.5 5q-35 21 -41 67.5t10.5 92.5t47 82t61.5 38q21 1 32.5 -7.5t15.5 -33.5
t-9 -72q-3 -13 -7 -14q-2 -1 -3 3t1 14q4 17 5.5 31t1.5 31.5t-8 25t-23 2.5q-17 -8 -44 -64.5t-38.5 -109t5.5 -74.5q22 -16 54 -1q32 16 75.5 67t76.5 104z" />
    <glyph glyph-name="d.calt" unicode="&#xe01c;" horiz-adv-x="321" 
d="M0 144q12 -9 26 -9t25 5t25.5 18.5t23.5 23.5t23 27q1 -13 4.5 -29t9 -36.5t15 -36t20.5 -26t27 -9t34 17.5q58 52 100 172q7 24 7 35q1 16 -11.5 21t-22.5 -8q-6 -7 -4.5 -15.5t10.5 -12.5q7 -2 11.5 3t4.5 12t-4 8l-3 1q-1 -2 0 -3q-3 -1 -5 3q-2 6 5 6q2 0 5 -1
q14 -4 -1 -48q-35 -107 -99 -167q-46 -44 -60 44q-8 59 0 117q49 36 93 95.5t73 125.5q30 66 36 118q6 40 -10 70t-57 15q-66 -24 -115 -137t-61 -241q-14 20 -41 25q-27 4 -55.5 -15.5t-45.5 -49t-14.5 -64t31.5 -55.5zM302 659q32 29 47.5 2.5t9.5 -64.5q-6 -53 -35 -116
q-65 -142 -156 -212q18 115 58.5 234t75.5 156zM87 313q12 1 22.5 -8.5t14.5 -24.5q-3 -28 -1 -59q-51 -57 -71 -70q-27 -16 -45 1q-13 19 0 54t39 70t41 37z" />
    <glyph glyph-name="e.calt" unicode="&#xe01d;" horiz-adv-x="201" 
d="M223 366q-10 3 -11 -2q1 -5 6 -6q-1 1 0 3l3 -1q4 -2 4 -8.5t-4.5 -11.5t-11.5 -3q-9 4 -10.5 12.5t4.5 15.5q10 13 22.5 8t11.5 -21q0 -10 -7 -35q-10 -31 -25 -64.5t-37.5 -72.5t-50 -61.5t-54.5 -17.5q-42 6 -61.5 44.5t-15 82.5t30.5 83.5t65 48.5q18 4 32.5 -3.5
t9.5 -28.5q-4 -24 -28 -40.5t-44 -0.5q-18 -46 -16.5 -105.5t27.5 -68.5q52 -16 113 99q17 27 40 87.5t7 66.5zM92 348q-20 -11 -35 -53q16 -14 38 0t24 34q1 13 -8 18.5t-19 0.5z" />
    <glyph glyph-name="f.calt" unicode="&#xe01e;" horiz-adv-x="191" 
d="M217 351q-9 8 -11 -1q-1 -5 5 -6v1q0 3 1 2q1 0 3 -1q3 -3 2.5 -9t-6 -10.5t-12.5 -1.5q-9 6 -8.5 14.5t7.5 14.5q12 11 22.5 4t8.5 -23q-8 -99 -187 -148v-2q41 -18 84 -79.5t22 -97.5q-18 -19 -37.5 -12.5t-38 29.5t-32.5 49.5t-20 48.5q-24 74 -16.5 166t31 175
t67.5 145t94 76q38 11 58.5 -9t16.5 -58q-5 -37 -24 -78q-27 -60 -77 -115t-110 -84q-17 -88 -18 -145q169 50 179 138q2 11 -4 17zM197 666q-39 -40 -76 -127t-59 -188q57 29 103.5 82t73.5 111q20 41 23 75q4 33 -18.5 51.5t-46.5 -4.5zM42 176q2 -50 39 -121
q35 -66 55 -49q3 3 5 7q17 34 -22.5 90.5t-76.5 72.5z" />
    <glyph glyph-name="g.calt" unicode="&#xe01f;" horiz-adv-x="281" 
d="M308 338q-9 5 -11 -1q-1 -7 6 -7q-1 1 0 3l3 -1q4 -2 4 -8.5t-4.5 -11.5t-11.5 -3q-9 4 -10.5 12.5t4.5 15.5q10 13 22 8t12 -21q0 -53 -45 -107.5t-100 -91.5q-2 -52 -13 -107.5t-32.5 -110.5t-59 -95.5t-85.5 -52.5q-40 -10 -67 10t-24 71q3 39 28 80.5t63 77t73 61.5
t70 47q7 69 -7 100q-11 -7 -31 -29t-37.5 -34t-32.5 -6q-55 22 -49 85q5 56 48 91q42 36 87 16q35 -15 28 -67q-3 -28 -10 -28q-6 2 -6 13q2 32 -1.5 43.5t-14.5 13.5q-51 17 -77 -38q-21 -45 -7 -86q9 -25 29 -27q3 0 8.5 3t12.5 10l13 13.5l14 15.5t13 14q41 44 59 -8
q7 -24 8 -63q137 99 137 186q0 10 -6 14zM129 94q-32 -19 -64.5 -43t-69.5 -58t-62 -74t-28 -77q-4 -39 16.5 -60t49.5 -14q19 5 35.5 18t29 28.5t24.5 41.5t19.5 45t16 51.5t12.5 49.5l11.5 50z" />
    <glyph glyph-name="h.calt" unicode="&#xe020;" horiz-adv-x="280" 
d="M271 278q-9 5 -11 -1q-1 -7 6 -7q-1 1 0 3l3 -1q4 -2 4 -8.5t-4.5 -11.5t-11.5 -3q-9 4 -10.5 12.5t4.5 15.5q11 13 23 8t12 -21q0 -45 -31 -103.5t-67 -87.5q-24 -16 -46.5 -12.5t-34.5 20.5q-17 20 -15.5 55t12 65t13 60t-12.5 38q-10 4 -25 -17t-29.5 -62t-22.5 -88
q-4 -1 -6.5 1.5t-3.5 10.5q-8 34 -9.5 89.5t4.5 120t26 133t51 117.5q57 89 131 105q32 7 45 -18t9 -62q-4 -39 -28 -89q-29 -67 -83 -130t-116 -97q-13 -69 -17 -133q8 33 19 62t34 55t49 17q20 -7 22.5 -36t-5.5 -62l-16.5 -71t-6.5 -56q1 -16 23.5 -17t32.5 8
q34 26 63 80t33 96q2 18 -7 22zM49 324q59 34 110 95t80 126q21 47 26 85q3 32 -6.5 55t-37.5 14q-59 -19 -102.5 -127.5t-69.5 -247.5z" />
    <glyph glyph-name="i.calt" unicode="&#xe021;" horiz-adv-x="143" 
d="M140 291q-9 5 -11 -1q-1 -7 6 -7q-1 1 0 3l3 -1q4 -1 4 -8t-4.5 -12t-11.5 -3q-9 4 -10.5 12.5t4.5 15.5q10 13 22.5 8t12.5 -21q0 -35 -18.5 -74.5t-45.5 -57.5q-27 -19 -59 -2q-28 15 -32 61.5t5.5 88t22.5 73.5q1 2 8 4.5t15 3.5t14.5 -2t6.5 -11q-52 -178 -19 -206
q17 -14 31 -5q26 17 44.5 55.5t18.5 70.5q0 10 -7 15zM72 441q12 -2 16 -15.5t-3 -25t-21 -8.5q-9 1 -13.5 7t-4.5 13.5t3 14t9.5 11t13.5 3.5z" />
    <glyph glyph-name="j.calt" unicode="&#xe022;" horiz-adv-x="146" 
d="M165 359q-9 5 -11 -1q-1 -7 6 -7q-1 1 0 3l3 -1q4 -1 4 -8t-4.5 -12t-11.5 -3q-9 4 -10.5 12.5t4.5 15.5q11 13 23 8t12 -21q0 -99 -125 -198q-2 -9 -9 -45.5l-11 -56.5t-13 -59t-17.5 -63l-20.5 -57t-26 -53.5t-30.5 -39.5t-37 -26.5t-42.5 -5.5q-40 6 -45.5 53t9 93.5
t31.5 73.5q19 32 47 61.5t49 47t58 44.5q9 58 13.5 147.5t5.5 101.5q0 4 9.5 7.5t20.5 2.5t14 -8q13 -37 -4 -204q45 32 80.5 84t35.5 99q0 10 -7 15zM-4 102q-106 -77 -146 -145q-15 -26 -29 -70t-11 -89t40 -48q29 -3 54.5 30t41 84.5t26.5 102t17 92t7 43.5zM45 469
q10 -2 15 -17.5t-0.5 -29.5t-21.5 -12q-25 2 -24 29q1 23 19 30q6 2 12 0z" />
    <glyph glyph-name="k.calt" unicode="&#xe023;" horiz-adv-x="295" 
d="M167 77q-33 10 -54.5 45.5t-6.5 67.5q11 16 20 47t10.5 51.5t-2.5 23.5q-24 -1 -43.5 -40.5t-37 -95.5t-23.5 -69q-18 20 -23 66.5t2.5 104.5t23 122.5t39.5 122.5t51.5 102.5t60 65.5t63.5 8q39 -18 12 -116q-20 -71 -73.5 -145t-119.5 -113q-4 -26 -12 -69l-13.5 -73.5
t-7.5 -47.5q6 30 16 62t25 67t36.5 53t43.5 10q21 -8 25.5 -41.5t-11.5 -65t-45 -34.5q16 0 23.5 -26.5t14 -52.5t19.5 -24q34 4 67 78t33 115q0 14 -7 15q-8 1 -8 -4q1 -3 5 -4q-1 1 -1 2q-1 2 3 0q4 -1 4.5 -7.5t-3.5 -12t-12 -4.5q-9 3 -11 12t3 16q10 14 22 10t13 -21
q1 -29 -14.5 -79t-45.5 -90.5t-61 -31.5zM68 338q62 37 111.5 108t70.5 140q5 16 8.5 35.5t1 41.5t-17.5 26q-14 3 -28.5 -3.5t-27.5 -24t-24 -35.5t-22.5 -48.5l-19.5 -52t-17.5 -56.5l-14 -50.5t-12 -47t-8.5 -33.5z" />
    <glyph glyph-name="l.calt" unicode="&#xe024;" 
d="M225 276q-9 5 -11 -1q-1 -7 6 -7q-1 1 0 3l3 -1q4 -2 4 -8.5t-4.5 -11.5t-11.5 -3q-9 4 -10.5 12.5t4.5 15.5q11 13 23 8t12 -21q0 -48 -36.5 -112.5t-75.5 -86.5q-37 -20 -68.5 11t-42.5 74q-23 106 -8 214.5t66.5 201.5t118.5 125q34 17 51 0q26 -26 -1 -108
q-26 -73 -76 -146.5t-113 -113.5q-22 -106 -13 -170q3 -22 13 -44.5t27.5 -37t41.5 1.5q40 25 74 85t34 105q0 10 -7 15zM202 679q-37 -36 -79 -137t-66 -209q60 40 109 111.5t70 138.5q25 77 3 99q-10 7 -20 5t-17 -8z" />
    <glyph glyph-name="m.calt" unicode="&#xe025;" horiz-adv-x="428" 
d="M389 213q-9 5 -11 -1q-1 -7 6 -7q-1 1 0 3l3 -1q4 -1 4 -8t-4.5 -12t-11.5 -3q-9 4 -10.5 12.5t4.5 15.5q11 13 22.5 8t11.5 -21q0 -49 -43.5 -124.5t-74.5 -75.5q-30 0 -51 34q-19 45 0 105.5l38 125t4 76.5q-21 16 -85 -49t-87 -121q-5 -12 -9.5 -16.5t-7 -4t-5.5 4.5
t-3.5 6.5t-1.5 5.5l7 65q7 65 -1 73q-10 16 -24 -24q-6 -17 -19 -64q-23 -82 -32 -82q-6 2 -9.5 13t-3.5 29.5t0.5 36t2 42t1.5 38.5q0 2 0.5 3.5l1 3t2 2.5l3 2t4.5 2t5.5 1.5t7.5 2.5t9 3q13 -32 5 -77q15 53 25 79q21 51 43 51q15 0 17 -23q2 -30 -2 -77t-13 -71
q25 49 91.5 115t102.5 67q65 -2 7 -170q-2 -6 -5.5 -18.5l-10 -35.5t-11.5 -45.5t-8.5 -44t-1.5 -36.5t9 -17q20 -6 49 32.5t48.5 86t18.5 69.5q0 10 -7 15z" />
    <glyph glyph-name="n.calt" unicode="&#xe026;" 
d="M211 243q-9 5 -11 -1q-1 -7 6 -7q-1 1 0 3l3 -1q4 -1 4 -8t-4.5 -12t-11.5 -3q-9 4 -10.5 12.5t4.5 15.5q11 13 22.5 8t11.5 -21q0 -33 -18.5 -77t-44.5 -60q-17 -14 -40.5 -13.5t-36.5 19.5q-16 24 9.5 106.5t21.5 89.5q-14 28 -58 -54q-5 -11 -17 -33q-31 -61 -38 -61
q-17 8 -13.5 52.5t25.5 106.5q16 9 34 9q2 -20 -6.5 -59t-8.5 -41q54 117 110 121q24 2 15 -47q-2 -12 -34 -116q-26 -88 0 -88q39 1 67 53.5t26 90.5q0 10 -7 15z" />
    <glyph glyph-name="o.calt" unicode="&#xe027;" horiz-adv-x="176" 
d="M193 357q-10 5 -11 -1q-2 -7 6 -7q-1 1 0 3l3 -1q4 -1 4.5 -8t-4 -12t-11.5 -3q-9 3 -11 11.5t4 15.5q10 14 21.5 9.5t12.5 -20.5q0 -45 -26.5 -71t-68.5 -16q5 -43 -30 -71t-71 2q-20 17 -20.5 48.5t13.5 60t43 45.5t62 7q26 -8 11 -48q-5 -15 -9 -16q-3 0 0 11
q1 4 3.5 11.5t3.5 11t0.5 8t-3.5 7t-9 4.5q-36 2 -64 -54t-16 -88q11 -29 43 -7q30 21 35 52q1 10 -2 19q-10 5 -14 14.5t3 17.5q12 -9 19 -25q37 -16 63.5 9.5t26.5 66.5q0 9 -7 14z" />
    <glyph glyph-name="p.calt" unicode="&#xe028;" horiz-adv-x="291" 
d="M311 364q-9 5 -11 -1q-1 -7 6 -7q-1 1 0 3l3 -1q4 -1 4.5 -8t-4 -12t-11.5 -3q-9 3 -11 12t4 16q10 13 22.5 8.5t12.5 -20.5q0 -61 -35 -118t-89 -59q-27 -50 -65 -50q-28 0 -26 21q1 22 27 35q12 5 25 5q15 37 20 71t-6 47q-11 8 -28.5 0.5t-36.5 -26t-30 -30.5t-19 -22
q1 -136 -33.5 -279.5t-89.5 -188.5q-22 -21 -49 -16t-30 43q-3 35 11 89q37 146 139 296q1 34 -2 86t-2 70q0 9 11.5 17t22 8.5t13.5 -7.5q8 -45 8 -105q10 13 17 20t19 20t22.5 19.5t23 12.5t24.5 5.5t24 -7.5q25 -16 27.5 -54t-13.5 -71q47 0 80.5 56t31.5 111q0 9 -7 14z
M-66 -226q40 41 55.5 139.5t20.5 239.5q-94 -143 -129 -282q-16 -60 -5 -100q13 -43 58 3zM134 137q11 7 26 39q-26 3 -36 -22q-7 -17 4 -19q2 0 6 2z" />
    <glyph glyph-name="q.calt" unicode="&#xe029;" horiz-adv-x="276" 
d="M296 343q-9 5 -11 -1q-1 -7 6 -7q-1 1 0 3l3 -1q4 -1 4 -8t-4.5 -12t-11.5 -3q-9 4 -10.5 12.5t4.5 15.5q10 13 22.5 8t12.5 -21q0 -62 -58 -135.5t-120 -96.5q-13 -41 -24 -91q70 -138 63 -215q-2 -31 -22 -42.5t-44 8.5q-32 29 -44.5 80t-7.5 104.5t22 109.5
q-12 18 -9.5 27.5t22.5 14.5q16 43 41 82q-58 -48 -85 -52q-44 -7 -59 46t10 106q25 51 74 49q58 -1 73 -68q6 -27 -4 -28q-9 -2 -14 20q-1 4 -1 8q-2 14 -12.5 24.5t-16.5 11.5q-16 1 -33.5 -13t-28.5 -36t-16.5 -45.5t0.5 -42.5t24 -25q16 -6 55.5 25t60.5 62q18 28 19 10
q1 -15 -7 -33q-18 -41 -32 -87q51 19 110 91t56 130q0 10 -7 15zM107 -8q-36 -167 5 -222q18 -22 33.5 -13.5t17.5 34.5q9 68 -56 201zM79 62q4 14 7 20q-11 -5 -12 -7.5t5 -12.5z" />
    <glyph glyph-name="r.calt" unicode="&#xe02a;" horiz-adv-x="225" 
d="M199 238q-8 6 -10 -1q-2 -6 5 -7v3q0 1 3 -1q3 -3 2.5 -9t-5.5 -11t-12 -2q-9 5 -9 14t7 15q12 12 23.5 5.5t9.5 -22.5q-4 -34 -31 -79t-56 -70q-48 -44 -81 18q-16 28 -10 65.5t19 67t26.5 57t13.5 36.5q0 1 -13 -3t-32 -9t-29 -6q-42 -3 -43 38q-1 38 25 68q25 28 42 2
q8 -12 -15 -103q8 1 21.5 6l23.5 8.5t22 4.5t16 -6q13 -13 14.5 -30t-6.5 -37t-18.5 -41t-21.5 -48.5t-15 -51.5q-4 -28 12.5 -39t41.5 10q28 24 55.5 67.5t30.5 74.5q0 10 -6 16zM38 401q-21 -6 -30 -48.5t12 -47.5q22 86 18 96z" />
    <glyph glyph-name="s.calt" unicode="&#xe02b;" horiz-adv-x="192" 
d="M202 338q-9 5 -11 -1q-1 -7 6 -7q-1 1 0 3l3 -1q4 -2 4 -8.5t-4.5 -11.5t-11.5 -3q-9 4 -10.5 12.5t4.5 15.5q10 13 22.5 8t12.5 -21q0 -84 -116 -130q9 -39 -8 -87.5t-55 -53.5q-31 -4 -35 32q-5 43 24 79q15 18 34 25q-5 18 -20 46l-24.5 47t-15.5 49t6 51
q5 11 13.5 20.5t20 14t20.5 -11.5q11 -19 -25 -91q6 -11 21 -33t25.5 -41t16.5 -37q110 47 110 120q0 10 -7 15zM64 180q-38 -16 -49 -67q-8 -40 11 -48q4 -2 10 0q24 6 30.5 49t-2.5 66zM32 324q28 65 22 77q-9 16 -20 -8q-16 -36 -3 -66q0 -2 1 -3z" />
    <glyph glyph-name="t.calt" unicode="&#xe02c;" horiz-adv-x="195" 
d="M199 285q-9 5 -11 -1q-1 -7 6 -7q-1 1 0 3l3 -1q4 -1 4 -8t-4.5 -12t-11.5 -3q-9 4 -10.5 12.5t4.5 15.5q11 13 23.5 8t12.5 -21q0 -44 -32 -107t-64 -85q-22 -13 -40 -8t-32.5 24.5t-23.5 38t-13 33.5q-6 25 -9 50.5t-1 58.5t3 52t8 60.5l9 54t12 61.5l11 54
q-123 28 -129 0l-8 2q3 11 14 16.5t33 4t40.5 -4.5t50.5 -10q11 59 14 79q2 22 23 13q22 -10 27 -35q1 -7 0 -14q-6 -36 -10 -55q126 -26 132 36h8q-2 -69 -142 -43l-14 -75.5l-14 -76t-11.5 -76t-6 -75t2.5 -71.5l2 -18.5t4 -24t7.5 -24t11 -18.5t15 -8.5t20.5 6.5
q32 24 62.5 85.5t30.5 98.5q0 10 -7 15z" />
    <glyph glyph-name="u.calt" unicode="&#xe02d;" horiz-adv-x="259" 
d="M251 282q-9 5 -11 -1q-1 -7 6 -7q-1 1 0 3l3 -1q4 -2 4 -8.5t-4.5 -11.5t-11.5 -3q-9 4 -10.5 12.5t4.5 15.5q11 13 23 8t12 -21q0 -23 -15.5 -67t-42 -82t-50.5 -37q-14 0 -25 13t-14 31q-10 58 10 178q-3 -5 -15 -28q-63 -122 -93 -127q-11 -1 -19 10q-9 13 -11 35
t0 39.5t7 48.5t7 45q1 14 15 26t26 9q27 -45 -13 -157q-12 -39 -7 -39q22 4 62 79t53 84q6 4 13 -4t10 -21q8 -28 -8 -127q-12 -80 1 -86q3 -2 7 -1q30 7 63 75t31 102q0 10 -7 15z" />
    <glyph glyph-name="v.calt" unicode="&#xe02e;" horiz-adv-x="295" 
d="M319 365q7 -5 7 -15q0 -59 -52 -117t-108 -43q77 123 60 171q-3 9 -14.5 11.5t-18.5 -3.5q-19 -14 -38 -50t-23.5 -73.5t22.5 -58.5q-36 -60 -73 -86q-39 -26 -43 24q-2 20 12.5 80l26 110.5t5.5 53.5q-14 9 -36.5 1.5t-24.5 -19.5q-29 -137 -31 -173q-2 -47 13.5 -74
t49.5 -23q6 1 12.5 3t13.5 7t12.5 9.5t13 12.5l12.5 13t12.5 15t11 14t11.5 14.5t10 13.5q60 -16 115.5 44t55.5 124q0 16 -11.5 21t-22.5 -8q-6 -7 -4.5 -15.5t10.5 -12.5q7 -2 11.5 3t4.5 12t-4 8l-3 1q-1 -2 0 -3q-7 0 -6 7q2 6 11 1zM159 194q-24 32 13 104q23 43 36 45
q6 1 5 -11q-5 -54 -54 -138z" />
    <glyph glyph-name="w.calt" unicode="&#xe02f;" horiz-adv-x="407" 
d="M428 356q-9 5 -11 -1q-1 -7 6 -7q-1 1 0 3l3 -1q4 -2 4 -8.5t-4.5 -11.5t-11.5 -3q-9 4 -10.5 12.5t4.5 15.5q10 13 22 8t12 -21q0 -51 -41 -88.5t-89 -29.5q-61 -147 -114 -170q-32 -13 -48.5 9.5t-17 62.5t3 72.5t7.5 50.5q-51 -90 -91 -138q-32 -39 -54 -33t-20 57
q4 80 38 213q7 15 31 18t28 -5q2 -15 3 -27t-3 -33t-7.5 -36t-10.5 -37.5l-11.5 -36l-11 -31.5t-8.5 -25q-13 -42 -10 -45q2 -2 29 27q44 50 106 164q3 15 16 22.5t22 4.5q16 -7 -7 -95q-27 -106 -24 -132q3 -33 37 -19q49 23 107 163q-53 21 -24 90q20 46 52 68
q26 19 25 -9v-3q-3 -47 -39 -140q45 -6 82 30t37 80q0 10 -7 15zM307 234q35 85 41 137q1 12 -19 -14q-40 -52 -38 -93q0 -21 16 -30z" />
    <glyph glyph-name="x.calt" unicode="&#xe030;" horiz-adv-x="256" 
d="M245 255q-9 5 -11 -1q-1 -7 6 -7q-1 1 0 3l3 -1q4 -1 4 -8t-4.5 -12t-11.5 -3q-9 4 -10.5 12.5t4.5 15.5q11 13 22.5 8t11.5 -21q0 -36 -19 -78t-46 -62q-24 -17 -47 -12q-12 2 -23 10.5t-22.5 25t-17.5 26.5t-17 31l-12 23q-67 -54 -81 -103q-2 -7 -6 -8q-3 0 -4 4
q0 2 1 5q15 51 85 110l-47 88q-5 15 6.5 28.5t21.5 12.5q29 -17 59 -96q72 57 87 109q2 10 6.5 9.5t1.5 -10.5q-15 -56 -91 -117q40 -94 62 -116q18 -17 34 -11q24 11 44 57t18 73q-2 11 -7 15z" />
    <glyph glyph-name="y.calt" unicode="&#xe031;" horiz-adv-x="258" 
d="M275 350q-9 5 -11 -1q-1 -7 6 -7q-1 1 0 3l3 -1q4 -2 4 -8.5t-4.5 -11.5t-11.5 -3q-9 4 -10.5 12.5t4.5 15.5q11 13 22.5 8t11.5 -21q0 -60 -40.5 -124.5t-92.5 -92.5q-2 -61 -24.5 -138.5t-67.5 -147t-99 -84.5q-38 -11 -58.5 9t-16.5 58q5 37 24 78q27 60 82.5 120.5
t115.5 89.5q4 22 8.5 81t-0.5 90l-8.5 -17.5l-11.5 -23.5t-14.5 -24.5t-17.5 -20.5t-20 -11.5t-23 2.5q-19 9 -23.5 38t-0.5 52.5t10 45.5q5 14 18 17.5t24 -0.5t14 -8q-1 -6 -6.5 -23l-11.5 -34t-10.5 -36.5t-4.5 -30.5t6 -16q17 -10 41 32.5t40 85.5q13 34 23 -1
q1 -4 2 -10q15 -92 10 -161q51 27 88.5 89.5t37.5 114.5q0 10 -7 15zM-36 -230q40 41 82.5 133.5t63.5 190.5q-57 -29 -109.5 -87.5t-78.5 -116.5q-20 -41 -23 -75q-4 -33 18.5 -50.5t46.5 5.5z" />
    <glyph glyph-name="z.calt" unicode="&#xe032;" horiz-adv-x="268" 
d="M269 240q-6 8 -10 4q-5 -6 2 -9v2q1 0 3 -2q3 -3 0 -9t-8.5 -9t-11.5 2q-16 17 6 29q15 7 24 -2.5t2 -24.5q-8 -17 -23.5 -35.5t-38.5 -37.5l-40 -32t-44.5 -32l-34.5 -24q34 -41 37 -112t-29 -132.5t-89 -71.5q-39 -7 -53 29q-26 79 40 194q27 45 76 88
q-8 11 -23.5 24.5t-21.5 21.5t-1 15q127 154 87 196q-8 9 -53.5 -7.5t-59.5 -11.5q-35 11 -22 62q10 40 34 54q18 10 28 -10q2 -8 2.5 -14.5t-3 -22t-6 -25l-6 -23t-4.5 -16.5q12 1 41.5 15.5t43.5 16.5q26 3 41 -10t12 -48q-4 -42 -42.5 -94.5t-78.5 -71.5q-9 -5 3 -12
q30 -17 42 -29q9 8 56.5 41t78.5 61.5t43 56.5q4 9 1 16zM82 48q-46 -39 -75 -87q-26 -42 -40.5 -96.5t1.5 -88.5q14 -35 45 -19q26 12 46 53.5t28 88.5t7 90t-12 59zM39 393q-21 -6 -31 -48t11 -47q1 3 5.5 19l8 29t6 27.5t0.5 19.5z" />
    <glyph glyph-name="a.salt" unicode="&#xe033;" horiz-adv-x="307" 
d="M160 -62q12 12 29 43t33 66.5t34 79.5t30 76l23.5 63.5t12.5 33.5h10q-2 -6 -19 -52l-33.5 -88l-37.5 -92t-41 -87t-35 -50q-29 -25 -62 -8q-18 10 -20 46.5t6.5 77t23 90t23.5 74l15 40.5q-81 -91 -127 -67q-31 17 -26 70q5 61 52 93q30 21 69 19q53 -2 32 -79
q-3 -13 -8.5 -13t-3.5 15q1 4 3 15t2.5 17t-0.5 14t-5.5 12t-12.5 5q-39 1 -62 -56q-21 -51 -7 -81q6 -13 18 -12q19 1 48.5 31.5t42.5 50.5q6 10 21 -20q5 -10 5 -14q-1 -12 -28.5 -85.5t-47.5 -143.5t-6 -87q10 -11 23.5 -10t25.5 13z" />
    <glyph glyph-name="b.salt" unicode="&#xe034;" horiz-adv-x="295" 
d="M33 247q3 -26 18 -6q5 6 15 21q40 60 66 69q16 5 32 -4q37 -27 24 -116t-50 -128q31 -10 61.5 12t53 62t37.5 77t22 66h10q-7 -26 -17 -54.5t-28.5 -65t-39 -63t-49 -39.5t-57.5 -3q-13 -11 -32 -18.5t-38 -9.5t-34 7t-18 30q-3 15 6.5 27.5t23.5 16.5q30 9 59 -23
q30 41 44 120t-18 89q-7 1 -25 -20.5t-33 -43.5l-15 -23q-28 -25 -39 28q-12 67 5 163.5t66.5 181.5t117.5 101q42 8 59 -14q15 -18 12 -58q-4 -35 -25 -83q-31 -66 -85 -125.5t-119 -89.5q-8 -42 -10 -84zM201 679q-49 -47 -92.5 -143t-63.5 -194q62 30 113 87t81 121
q19 43 24 80q3 36 -10 52q-12 11 -26 9t-26 -12zM92 98q-26 29 -51 21q-28 -9 -23 -34q6 -22 22.5 -19t29.5 12t22 20z" />
    <glyph glyph-name="c.salt" unicode="&#xe035;" horiz-adv-x="227" 
d="M-5 6q-35 20 -38 80t17.5 121.5t54 110.5t64.5 51q21 1 32.5 -7.5t15.5 -33.5t-9 -72q-3 -13 -7 -14q-2 -1 -3 3t1 14q4 17 5.5 31t1.5 31.5t-8 25t-23 2.5q-12 -6 -35 -54t-41.5 -105.5t-27 -108.5t6.5 -63q21 -16 53 -1q57 27 190 283h10q-3 -5 -23.5 -43.5l-31 -57.5
t-32.5 -55.5t-37 -58t-34 -43t-34 -30.5q-14 -9 -34.5 -11t-33.5 5z" />
    <glyph glyph-name="d.salt" unicode="&#xe036;" horiz-adv-x="321" 
d="M0 144q12 -9 26 -9t24.5 5t25.5 19t22.5 23l22.5 27q2 -158 31 -244q25 -75 65 -43q30 24 64 118.5t54.5 177t18.5 82.5h-10l-8 -33q-7 -33 -20.5 -83t-30 -101.5t-37 -95t-38.5 -58.5q-21 -16 -33 33q-21 81 -15 242q1 38 4 53q49 36 93 95.5t73 125.5q30 66 36 118
q6 40 -10 70t-57 15q-66 -24 -115 -137t-61 -241q-14 20 -41 25t-55.5 -15t-45.5 -49.5t-14.5 -64t31.5 -55.5zM302 659q32 29 47.5 2.5t9.5 -64.5q-6 -53 -35 -116q-65 -142 -156 -212q18 115 58.5 234t75.5 156zM87 313q12 1 22.5 -8.5t14.5 -24.5q-4 -43 -3 -59
q-49 -55 -65 -67q-30 -20 -49 -2q-13 19 0 54t39 70t41 37z" />
    <glyph glyph-name="e.salt" unicode="&#xe037;" horiz-adv-x="169" 
d="M55 157q29 -10 64 34t67 109h9q-36 -73 -70 -114.5t-70 -40.5q-44 0 -57 52q-15 57 16 110q24 43 68 53q18 4 32.5 -3.5t9.5 -28.5q-4 -24 -28 -40.5t-44 -0.5q-16 -49 -16 -86t19 -44zM92 348q-20 -11 -35 -53q16 -14 38 0t24 34q1 13 -8 18.5t-19 0.5z" />
    <glyph glyph-name="f.salt" unicode="&#xe038;" horiz-adv-x="203" 
d="M9 226q-13 84 10 186t72 180t105 93q38 11 58.5 -9t16.5 -58q-5 -37 -24 -78q-27 -60 -77 -115t-110 -84l-7 -40q14 2 40 -4.5t48 -13.5t45.5 -4t35.5 21h10q-16 -29 -50 -29.5t-75 11.5t-55 10q38 -25 71 -92t7 -100q-26 -22 -52 -1t-45.5 59t-23.5 68zM197 666
q-39 -40 -76 -127t-59 -188q57 29 103.5 82t73.5 111q20 41 23 75q4 33 -18.5 51.5t-46.5 -4.5zM50 282q-6 -51 21 -127q22 -60 42 -57q6 1 11 8q22 30 -9 92.5t-65 83.5z" />
    <glyph glyph-name="g.salt" unicode="&#xe039;" horiz-adv-x="293" 
d="M123 206q-11 -7 -31 -29t-37.5 -34t-32.5 -6q-54 21 -40 92q12 64 62.5 108.5t96.5 24.5q32 -14 25 -67q-3 -30 -9 -28q-5 2 -4 13q4 61 -13 65q-40 9 -80 -56q-36 -60 -32 -107q2 -27 21 -29q3 0 8.5 3t12.5 10l13 13.5l14 15.5t13 14q41 44 59 -8q7 -24 8 -63
q48 35 81.5 72t52.5 90h9q-35 -102 -143 -175q-2 -52 -13 -107.5t-32.5 -110.5t-59 -95.5t-85.5 -52.5q-40 -10 -67 10t-24 71q3 39 28 80.5t63 77t73 61.5t70 47q7 69 -7 100zM129 94q-32 -19 -64.5 -43t-69.5 -58t-62 -74t-28 -77q-4 -39 16.5 -60t49.5 -14q19 5 35.5 18
t29 28.5t24.5 41.5t19.5 45t16 51.5t12.5 49.5l11.5 50z" />
    <glyph glyph-name="h.salt" unicode="&#xe03a;" horiz-adv-x="280" 
d="M132 316q23 -7 1 -166.5t-21 -188.5q2 -24 12 -24q33 5 76 86t68.5 156.5t36.5 120.5h10q-105 -356 -194 -386q-50 -17 -56 56q-5 60 30 242q17 86 9 87q-18 1 -42 -48t-35 -119q-4 -1 -6.5 1.5t-3.5 10.5q-8 34 -9.5 89.5t4.5 120t26 133t51 117.5q57 89 131 105
q32 7 45 -18t9 -62q-4 -39 -28 -89q-29 -67 -83 -130t-116 -97q-13 -69 -17 -133q6 23 13.5 44t20 47t30.5 38.5t38 6.5zM49 324q59 34 110 95t80 126q21 47 26 85q3 32 -6.5 55t-37.5 14q-59 -19 -102.5 -127.5t-69.5 -247.5z" />
    <glyph glyph-name="i.salt" unicode="&#xe03b;" horiz-adv-x="147" 
d="M72 361q-5 -17 -10 -46t-6.5 -65t10.5 -46q16 -18 46.5 15.5t49.5 80.5h9q-66 -142 -128 -110q-29 15 -36 49.5t-0.5 65t18.5 61.5q1 2 8.5 4.5t16 3.5t15.5 -2t7 -11zM72 441q12 -2 16 -15.5t-3 -25t-21 -8.5q-9 1 -13.5 7t-4.5 13.5t3 14t9.5 11t13.5 3.5z" />
    <glyph glyph-name="j.salt" unicode="&#xe03c;" horiz-adv-x="146" 
d="M-152 -259q-40 6 -45.5 53t9 93.5t31.5 73.5q19 32 47 61.5t49 47t58 44.5q9 58 13.5 147.5t5.5 101.5q0 4 9.5 7.5t20.5 2.5t14 -8q13 -37 -4 -204q78 61 106 139h10q-27 -81 -117 -153q-2 -9 -9 -45.5l-11 -56.5t-13 -59t-17.5 -63l-20.5 -57t-26 -53.5t-30.5 -39.5
t-37 -26.5t-42.5 -5.5zM-4 102q-106 -77 -146 -145q-15 -26 -29 -70t-11 -89t40 -48q29 -3 54.5 30t41 84.5t26.5 102t17 92t7 43.5zM45 469q10 -2 15 -17.5t-0.5 -29.5t-21.5 -12q-25 2 -24 29q1 23 19 30q6 2 12 0z" />
    <glyph glyph-name="k.salt" unicode="&#xe03d;" horiz-adv-x="295" 
d="M247 699q39 -18 12 -116q-20 -71 -73.5 -145t-119.5 -113q-12 -63 -21 -149q35 48 78 95.5t64 47.5q29 5 27 -23q-1 -37 -40 -75q-24 -22 -51 -31q-11 -4 -13.5 -127.5t18.5 -131.5q17 -5 37 16.5t40 63t37.5 82.5t34.5 91.5l24 72.5t13 43h10l-16 -49.5t-35 -101.5
t-44.5 -111.5t-53.5 -91.5t-53 -30q-26 6 -41.5 54t-10.5 113t36 111q47 69 47 87q0 9 -20 -11q-39 -39 -98 -120q-30 16 -31.5 83.5t21.5 151.5t56.5 162t79.5 123.5t86 28.5zM68 338q62 37 111.5 108t70.5 140q5 16 8.5 35.5t1 41.5t-17.5 26q-14 3 -28.5 -3.5t-27.5 -24
t-24 -35.5t-22.5 -48.5l-19.5 -52t-17.5 -56.5l-14 -50.5t-12 -47t-8.5 -33.5z" />
    <glyph glyph-name="l.salt" unicode="&#xe03e;" 
d="M17 148q-23 106 -8 214.5t66.5 201.5t118.5 125q34 17 51 0q26 -26 -1 -108q-26 -73 -76 -146.5t-113 -113.5q-22 -106 -13 -170q5 -39 27 -69t55 -11q25 15 47 49q26 39 51.5 96.5t33.5 83.5h9q-42 -120 -86 -185q-30 -40 -51 -52q-37 -20 -68.5 11t-42.5 74zM202 679
q-37 -36 -79 -137t-66 -209q60 40 109 111.5t70 138.5q25 77 3 99q-10 7 -20 5t-17 -8z" />
    <glyph glyph-name="m.salt" unicode="&#xe03f;" horiz-adv-x="428" 
d="M32 313q14 -31 5 -83q16 63 25 85q21 51 43 51q15 0 17 -23q2 -30 -2 -77t-13 -71q25 49 91.5 115t102.5 67q65 -2 7 -170q-2 -7 -7.5 -24t-15.5 -51t-17.5 -64t-15 -64t-6.5 -51t7 -24q21 -8 54 44t63 126t50.5 129.5t24.5 71.5h10l-5 -17l-12 -33.5l-15.5 -44
t-19.5 -52.5l-22 -55t-23.5 -54.5t-25 -49t-25 -41t-23.5 -27t-22 -10.5q-24 0 -38.5 10.5t-18 32.5t-4 42.5t8.5 55l14.5 54.5t17.5 56t15 46q36 113 19 127q-21 16 -85 -49t-87 -121q-5 -12 -9.5 -16.5t-7 -4t-5.5 4.5t-3.5 6.5t-1.5 5.5l7 65q7 65 -1 73q-10 16 -24 -24
q-6 -17 -19 -64q-23 -82 -32 -82q-6 2 -9.5 13t-3.5 29.5t0.5 36t2 42t1.5 38.5q0 2 0.5 3.5l1 3t2 2.5l3 2t4.5 2t5.5 1.5t7.5 2.5t9 3z" />
    <glyph glyph-name="n.salt" unicode="&#xe040;" 
d="M49 314q2 -20 -6.5 -59t-8.5 -41q54 117 110 121q22 2 5 -79q-7 -35 -30 -121q-43 -163 -36 -191q5 -18 25 -4q15 10 35 49.5t38 90t33 97.5l26 84.5t11 38.5h10q-97 -331 -142 -366q-41 -31 -67 6q-15 22 3.5 105.5t41.5 162t19 86.5q-14 28 -58 -54q-5 -11 -17 -33
q-31 -61 -38 -61q-17 8 -13.5 52.5t25.5 106.5q16 9 34 9z" />
    <glyph glyph-name="o.salt" unicode="&#xe041;" horiz-adv-x="176" 
d="M109 349q26 -8 11 -48q-5 -15 -9 -16q-3 0 0 11q1 4 3.5 11.5t3.5 11t0.5 8t-3.5 7t-9 4.5q-35 2 -68.5 -69.5t-21.5 -104.5q11 -27 45 4q35 32 42 70q3 13 -1 22q-10 5 -14 14.5t3 17.5q12 -9 19 -25q22 -8 49.5 1t32.5 32h9q-4 -27 -33.5 -38.5t-55.5 -4.5
q5 -44 -36 -87.5t-75 -13.5q-22 18 -19 53.5t17.5 70.5t45.5 57t64 12z" />
    <glyph glyph-name="p.salt" unicode="&#xe042;" horiz-adv-x="291" 
d="M11 169q1 34 -2 86t-2 70q0 9 11.5 17t22 8.5t13.5 -7.5q8 -45 8 -105q10 13 17 20t19 20t22.5 19.5t23 12.5t24.5 5.5t24 -7.5q25 -16 28 -53t-13 -70q69 0 99 115h10q-36 -124 -113 -124q-27 -50 -65 -50q-28 0 -26 21q1 22 27 35q12 5 25 5q15 36 19.5 69.5t-6.5 46.5
q-11 8 -28.5 0.5t-36.5 -26t-30 -30.5t-19 -22q1 -136 -33.5 -279.5t-89.5 -188.5q-22 -21 -49 -16t-30 43q-3 35 11 89q37 146 139 296zM-66 -226q40 41 55.5 139.5t20.5 239.5q-94 -143 -129 -282q-16 -60 -5 -100q13 -43 58 3zM135 139q11 7 26 39q-26 3 -36 -22
q-7 -17 4 -19q2 0 6 2z" />
    <glyph glyph-name="q.salt" unicode="&#xe043;" horiz-adv-x="276" 
d="M138 256q1 -27 -4 -29q-6 -2 -9 29q-1 7 -2.5 26.5t-3.5 32.5t-4 13q-16 1 -34.5 -16.5t-31.5 -44t-21 -54.5t-5 -50.5t18 -28.5q17 -6 56 23t60 60q18 28 19 10q1 -15 -7 -33q-18 -41 -32 -87q119 46 156 193h9q-42 -158 -169 -203q-13 -41 -24 -91q70 -138 63 -215
q-2 -31 -22 -42.5t-44 8.5q-32 29 -44.5 80t-7.5 104.5t22 109.5q-12 18 -9.5 27.5t22.5 14.5q16 43 41 82q-58 -48 -85 -52q-42 -6 -53 49q-12 61 18 124q30 62 80 64q11 0 19 -3t12.5 -10.5t8 -14t5 -18.5t2 -19t1 -21t0.5 -18zM107 -8q-36 -167 5 -222q18 -22 33.5 -13.5
t17.5 34.5q9 68 -56 201zM79 62q4 14 7 20q-11 -5 -12 -7.5t5 -12.5z" />
    <glyph glyph-name="r.salt" unicode="&#xe044;" horiz-adv-x="225" 
d="M72 -56q54 49 173 356h9q0 -1 -7.5 -20.5l-18 -46.5l-24.5 -62t-30 -70.5t-32 -67.5t-33 -58t-30 -38q-22 -20 -41 -17q-34 7 -40.5 49t8 98t34 110.5t37 96t17.5 43.5q0 1 -13 -4t-32 -10.5t-29 -6.5q-42 -3 -43 39q-1 38 25 69q25 29 42 3q8 -12 -15 -103q9 1 28.5 9
t30 10.5t24.5 -2.5q20 -13 7 -67t-37.5 -111t-41 -117t-4.5 -84q11 -20 36 2zM38 401q-21 -6 -30 -48.5t12 -47.5q22 86 18 96z" />
    <glyph glyph-name="s.salt" unicode="&#xe045;" horiz-adv-x="236" 
d="M61 405q11 -19 -25 -91q111 -194 128 -248q29 12 54 89.5t31 144.5h10q-9 -71 -33.5 -150t-59.5 -93q9 -39 -8 -87.5t-55 -53.5q-31 -4 -35 32q-5 43 24 79q15 18 34 25q-5 18 -43.5 91.5t-63.5 140.5t-12 98q5 11 13.5 20.5t20 14t20.5 -11.5zM129 43q-38 -16 -49 -67
q-8 -40 11 -48q4 -2 10 0q24 6 30.5 49t-2.5 66zM32 324q28 65 22 77q-9 16 -20 -8q-16 -36 -3 -66q0 -2 1 -3z" />
    <glyph glyph-name="t.salt" unicode="&#xe046;" horiz-adv-x="204" 
d="M-86 558l-8 2q3 11 14 16.5t33 4t40.5 -4.5t50.5 -10q11 59 14 79q2 22 23 13q22 -10 27 -35q1 -7 0 -14q-6 -36 -10 -55q126 -26 132 36h8q-2 -69 -142 -43l-9 -45l-14 -70.5l-16 -83t-16 -94l-13 -92t-8.5 -88.5t-1 -71.5t8 -53t20.5 -22.5q18 0 35.5 12.5t31.5 33.5
t26.5 46.5t23 56.5t18.5 59.5t14.5 58t10.5 49.5l7.5 38t3.5 19h10q-37 -211 -87 -303q-43 -81 -99 -91q-29 -6 -45.5 16t-22.5 82q-1 29 -2 45.5t2.5 55l5.5 62t8.5 66.5t10 69t11 69l12 67l11.5 63.5l10 56.5q-123 28 -129 0z" />
    <glyph glyph-name="u.salt" unicode="&#xe047;" horiz-adv-x="259" 
d="M46 362q27 -45 -13 -157q-12 -39 -7 -39q22 4 62 79t53 84q6 4 12 -4t9 -21q3 -9 -7.5 -65.5t-25 -125t-17.5 -84.5q-9 -64 -6 -75q3 -10 12 -8q46 11 156 354h10q-10 -40 -37 -119.5t-67 -162.5t-64 -83q-30 0 -37 39q-3 18 3.5 69.5t15.5 100.5l19.5 101.5t11.5 58.5
q-3 -5 -15 -28q-63 -122 -93 -127q-11 -1 -19 10q-9 13 -11 35t0 39.5t7 48.5t7 45q1 14 15 26t26 9z" />
    <glyph glyph-name="v.salt" unicode="&#xe048;" horiz-adv-x="295" 
d="M82 369q-14 9 -36.5 1.5t-24.5 -19.5q-29 -136 -31 -175q-2 -47 13.5 -74t49.5 -23q8 1 16 4.5t17.5 11.5t16 14.5t16.5 18.5l15 18t15 20t13 17q44 -14 88.5 21t72.5 96h-9q-19 -44 -61 -83t-87 -27q77 123 60 171q-3 9 -14.5 11.5t-18.5 -3.5q-19 -14 -38 -50
t-23.5 -73.5t22.5 -58.5q-37 -62 -74 -88q-38 -25 -42 24q-2 19 12.5 80l26 112t5.5 54zM159 194q-24 32 13 104q23 43 36 45q6 1 5 -11q-5 -54 -54 -138z" />
    <glyph glyph-name="w.salt" unicode="&#xe049;" horiz-adv-x="407" 
d="M189 308q18 -7 -16 -152q-39 -165 -39 -203q0 -32 15 -31l6 2q10 4 25 27t35 67l31.5 71l33.5 81t22 55q-53 21 -24 90q20 46 52 68q26 19 25 -9v-3q-3 -47 -39 -140q32 -6 63 15t47 54h10q-20 -38 -53 -60.5t-71 -15.5q-3 -7 -16 -39.5t-22 -53l-23.5 -54.5t-26 -57.5
l-24 -47.5t-23.5 -38t-19 -18q-58 -27 -62 61q-2 79 47 272q-51 -90 -91 -138q-32 -39 -54 -33t-20 57q4 80 38 213q7 15 31 18t28 -5q2 -15 3 -27t-3 -33t-7.5 -36t-10.5 -37.5l-11.5 -36l-11 -31.5t-8.5 -25q-13 -42 -10 -45q2 -2 29 27q44 50 106 164q3 15 16 22.5
t22 4.5zM307 234q35 85 41 137q1 12 -19 -14q-40 -52 -38 -93q0 -21 16 -30z" />
    <glyph glyph-name="x.salt" unicode="&#xe04a;" horiz-adv-x="256" 
d="M-36 97q17 58 86 116l-47 88q-5 15 6.5 28.5t21.5 12.5q29 -17 59 -96q43 34 95 86.5t61 82.5q2 10 6.5 9.5t1.5 -10.5q-9 -32 -61.5 -86t-98.5 -91q36 -85 53 -107q21 -24 40 -17q21 9 40 49.5t28 73.5t15 64h8q-28 -116 -52 -159q-34 -60 -79 -52q-12 2 -23 10.5
t-22.5 25t-17.5 26.5t-17 31l-12 23q-66 -54 -82 -109q-2 -7 -6 -8q-3 0 -4 4q0 2 1 5z" />
    <glyph glyph-name="y.salt" unicode="&#xe04b;" horiz-adv-x="258" 
d="M112 104q4 22 8.5 81t-0.5 90l-8.5 -17.5l-11.5 -23.5t-14.5 -24.5t-17.5 -20.5t-20 -11.5t-23 2.5q-19 9 -22 45.5t2 67.5t11 53q5 14 17 17.5t21.5 0t12.5 -7.5q-1 -5 -7 -26t-11 -41t-10 -44.5t-5 -37.5t6 -20q17 -9 41.5 32.5t39.5 83.5q13 34 23 -1q1 -4 2 -10
q15 -91 10 -157q80 65 119 165h9q-37 -107 -128 -178q-2 -61 -24.5 -139t-67.5 -148.5t-99 -85.5q-38 -11 -58.5 9t-16.5 58q5 37 24 78q27 60 82.5 120.5t115.5 89.5zM-36 -230q40 41 82.5 133.5t63.5 190.5q-57 -29 -109.5 -87.5t-78.5 -116.5q-20 -41 -23 -75
q-3 -33 19 -50.5t46 5.5z" />
    <glyph glyph-name="z.salt" unicode="&#xe04c;" horiz-adv-x="273" 
d="M5 247q4 -9 9 -5t-1 9q0 -6 -3 0q-2 3 2 9t10 7t11 -5q5 -9 1 -17t-13 -10q-16 -4 -22.5 8.5t3.5 25.5q42 56 111 70q26 3 41 -10t12 -48q-4 -42 -42.5 -94.5t-78.5 -71.5q-9 -5 3 -12q30 -17 42 -29l49.5 38.5t50.5 41t38.5 38t38 50.5t24.5 58h8q-11 -38 -26.5 -66.5
t-47.5 -59t-52.5 -47t-77.5 -58.5q34 -41 37 -112t-29 -132.5t-89 -71.5q-39 -7 -53 29q-26 79 40 194q27 45 76 88q-8 11 -23.5 24.5t-21.5 21.5t-1 15q131 158 87 196q-18 15 -56.5 -10.5t-54.5 -46.5q-5 -8 -2 -17zM82 57q-46 -39 -75 -87q-26 -42 -40.5 -96.5t1.5 -88.5
q14 -35 45 -19q26 12 46 53.5t28 88.5t7 90t-12 59z" />
    <glyph glyph-name="A.swsh" unicode="&#xe04d;" horiz-adv-x="374" 
d="M286 728q52 -2 21 -193q-8 -47 -38 -195q57 -109 42 -205q-10 -73 -37 -87q-22 -11 -44 6q-51 38 -22 229q12 69 20 109q-35 51 -75 86q-12 -29 -52.5 -138t-72 -177.5t-71.5 -133.5q125 -27 233 -86q252 -137 197 -266q-6 -15 -14 -10q-6 3 -1 14q13 22 10 46
t-10.5 44.5t-26.5 42t-37 38.5t-42 34t-42.5 28l-37.5 22q-116 63 -234 86q-56 -68 -117 -74q-47 -5 -67 25q-20 28 8 49q45 35 173 8q41 67 72 136t68.5 170.5t56.5 147.5q-16 13 -34 23.5t-39.5 18t-37 -0.5t-18.5 -34q-2 -13 -10 -12.5t-6 13.5q7 43 29 50q45 14 120 -50
q58 141 88 191q-62 -42 -149 -53t-156 8q-6 -44 -21 -94.5t-41 -104.5t-67.5 -86.5t-89.5 -26.5q-61 6 -89 63t-18 119q-57 10 -110 38t-93.5 68.5t-59.5 97t-6 115.5q2 11 7 12q4 0 5 -5q1 -4 0 -9q-14 -55 4 -109t57 -94t91 -68.5t106 -37.5q10 53 40 101.5t74 54.5
q52 7 60 -33.5t-31 -83.5q-53 -60 -136 -48q-9 -59 16.5 -111.5t83.5 -59.5q46 -5 86 27t64.5 84.5t39.5 102t20 91.5q-79 21 -137.5 82.5t-63.5 138.5q-4 69 25 102t71 18t73 -73q59 -104 42 -263q50 -11 104 -12t112 16.5t98 50.5q17 24 37 27zM-73 649q8 74 -2 136
q-13 75 -43 120q-32 49 -67 60t-57 -17t-22 -84q0 -69 58 -134q56 -63 133 -81zM231 404l16 72.5l16 73t12.5 58.5t8.5 53.5t1 34.5q-4 40 -43 -24q-8 -13 -11 -20q-29 -56 -74 -166q39 -33 74 -82zM-384 515q73 -12 124 43q37 39 31 74q-7 33 -52 27q-37 -5 -65.5 -50.5
t-37.5 -93.5zM265 325q-48 -246 -17 -269q11 -7 21 -3q25 17 33 84q13 93 -37 188zM-57 24q-129 25 -166 -13q-20 -21 2 -42q2 -2 5 -4q15 -12 38.5 -12.5t56.5 17t64 54.5zM894 1138h9q-12 -33 -55.5 -65t-105.5 -54.5t-134 -38.5t-142 -17t-128.5 9t-95.5 40.5t-40 77.5
q0 8 3.5 12.5t8 2t5.5 -13.5q5 -58 69.5 -89t156 -29t185.5 21t168.5 58.5t95.5 85.5z" />
    <glyph glyph-name="B.swsh" unicode="&#xe04e;" horiz-adv-x="488" 
d="M299 661q6 -55 -10.5 -137t-40 -152.5t-43 -147t-18.5 -121.5q-27 16 -8 159q-82 10 -123 -45q-32 -44 -12 -90q18 -43 75 -52q88 -14 172 54q73 59 85 133q15 87 -72 128q-6 2 -12 5q-12 5 -13 7q0 3 3 5q55 25 90 70.5t45.5 96.5t3.5 104t-30 95t-63 69t-89 27
q-81 0 -154 -50t-110 -126q-18 -39 -32.5 -96.5t-9.5 -101.5q6 -39 26.5 -54.5t41.5 0.5t27 58q6 52 -9 101q-3 9 3 10.5t9 -8.5q14 -47 6 -105q-7 -49 -33 -66.5t-51 1t-31 61.5q-6 47 10 108.5t35 99.5q41 82 114.5 130.5t156.5 52.5q67 3 120 -23t83 -68.5t38 -98
t-7.5 -109.5t-61.5 -103.5t-117 -79.5q119 -45 123 -133q4 -73 -68 -137q-79 -70 -184 -70q-24 0 -47 5q-68 13 -84 69q-14 51 24 94q44 50 123 39q25 194 76 372q2 3 5.5 6.5t15 9t22.5 4.5z" />
    <glyph glyph-name="C.swsh" unicode="&#xe04f;" horiz-adv-x="395" 
d="M-40 540q-13 33 -13 77t13 77q8 20 22.5 29t29.5 6t28 -16t19 -32q8 -27 5 -67q-6 -81 -41 -149q29 -21 63 -31q72 223 208 261q38 10 64 -6t35 -46t6 -64t-18 -59q-30 -51 -100.5 -80t-129.5 -20q-13 -51 -19.5 -82.5t-13 -84t1.5 -94.5t30 -73q24 -34 74 -31
q77 4 133 107q33 59 55 138h6q-27 -92 -55 -140q-60 -106 -138 -112q-60 -4 -98.5 23t-52.5 70t-15 99t6.5 102t18.5 86q-35 10 -64 31q-40 -76 -110.5 -125t-160.5 -60q-75 -8 -133 14q-64 22 -103 76q-76 104 -25 287q1 4 3.5 5t4 -1.5t0.5 -5.5q-50 -178 24 -281
q38 -51 98 -73q59 -21 130 -13q89 11 158 59.5t108 122.5q-36 30 -54 76zM152 426q61 -7 126.5 20t96.5 77q17 28 17.5 70t-17.5 71q-15 22 -42 25.5t-47 -11.5q-66 -42 -134 -252zM17 470q33 66 39 144q3 39 -4 65q-10 35 -40 41t-45 -29q-20 -50 -10 -110q10 -68 60 -111z
" />
    <glyph glyph-name="D.swsh" unicode="&#xe050;" horiz-adv-x="440" 
d="M-129 496q-3 10 3 10q5 1 8 -8q10 -32 9 -74t-13 -71q-8 -20 -22.5 -29t-29.5 -6t-28 16t-19 32q-8 27 -5 67q10 138 98.5 252t216.5 128q64 7 113.5 -12.5t79 -57.5t47 -89t21.5 -108.5t-1 -112.5t-19 -105q54 -16 88 -55.5t44 -97.5h-5q-22 114 -129 146
q-75 -231 -208 -259q-40 -9 -67 7.5t-35 45.5t-4.5 62.5t18.5 59.5q14 23 35 41q9 116 50 334q2 3 5.5 7t14.5 11t23 7q21 -126 -43 -328q78 34 146 27q15 56 22.5 112.5t4.5 121.5t-21 114.5t-63.5 82.5t-115.5 33q-75 0 -145 -56.5t-113 -141t-50 -169.5q-3 -31 7 -65
q10 -35 37.5 -41t42.5 29q12 28 12 69t-10 71zM261 330q-73 7 -148 -31q-16 -46 -22.5 -88.5t-4.5 -62.5l1 -20q-28 16 -20 142q-18 -18 -29 -36q-16 -27 -18.5 -62t8.5 -62t35.5 -39.5t63.5 6.5q66 31 134 253z" />
    <glyph glyph-name="E.swsh" unicode="&#xe051;" horiz-adv-x="407" 
d="M355 668q-13 -58 -129 -109q-8 -42 0 -78q26 1 51.5 -8t35.5 -28q11 -18 0 -24q-22 -15 -53 4t-41 43q-47 -11 -83.5 -54t-53.5 -96.5t-15.5 -110t24.5 -93.5q21 -33 57 -42q144 -35 280 228h7q-52 -99 -94.5 -148.5t-89.5 -74.5q-43 -24 -103 -14q-51 8 -86 35t-48.5 64
t-14.5 80t16 85t43 76t67 55t88 22q-13 24 -16 68q-147 -55 -273 -54q1 -32 1.5 -74.5t-10 -89.5t-25.5 -87.5t-45 -68.5t-69 -32q-61 -6 -100.5 43.5t-42.5 112.5q-57 -3 -115 13.5t-106.5 47.5t-78.5 82t-30 112q0 9 3 12t6 -0.5t3 -11.5q-2 -75 47.5 -134.5t122.5 -88
t147 -24.5q-1 54 18 107.5t61 68.5q52 19 67 -22q15 -40 -17 -91q-40 -65 -120 -71q3 -59 39.5 -105t94.5 -40q46 5 78 44.5t45 96t17 108t1 93.5q-82 4 -152 51.5t-91 122.5q-18 66 3 104.5t65 32.5t87 -56q80 -90 96 -248q57 -3 136.5 14t136.5 42q-2 67 28 115.5t90 40.5
q23 -3 33.5 -15.5t6.5 -30.5zM-84 503q-8 74 -31 133q-27 68 -67 108q-65 64 -109 39t-25 -110q15 -68 85 -119q68 -49 147 -51zM-360 306q72 4 111 67q30 47 16 81q-13 31 -56 15q-36 -13 -54 -63.5t-17 -99.5zM314 693q-33 -12 -55.5 -46t-31.5 -78q105 49 119 99
q3 15 -6 23t-26 2zM229 469q7 -20 32 -36t45 -8q9 5 3 18q-10 17 -34 23.5t-46 2.5z" />
    <glyph glyph-name="F.swsh" unicode="&#xe052;" horiz-adv-x="455" 
d="M-118 673q0 86 141 97q65 4 195 -9q22 -2 62.5 -7t54.5 -6q103 -13 159.5 -18t120.5 -2t92 21q10 5 14 16.5t-3 19.5q-4 4 -8 3q-3 0 -12 -10q-2 -4 -5.5 -4.5t-4.5 2.5t2 7q8 13 19 15q7 2 15 -6q11 -14 6 -28.5t-18 -22.5q-28 -20 -96 -23t-119.5 2t-162.5 18
q-20 3 -65 7q7 -56 -6.5 -172.5t-32.5 -182.5q106 -4 158 24l5 -5q-56 -31 -166 -26l-14.5 -58t-13.5 -54t-10.5 -50t-5.5 -45.5t2 -41.5q126 -17 158 -64q12 -18 5.5 -36t-26.5 -26q-90 -32 -153 120q-270 25 -436 -71q-88 -51 -80 -124q1 -8 -2 -11t-6.5 0t-3.5 10
q-5 81 88 132q86 51 204.5 67.5t232.5 5.5q-25 79 -8 203q-48 46 -107 68q-7 2 2 4h10q82 -14 104 -16q3 18 12 95.5t18.5 149.5t17.5 111q-111 13 -192 8q-131 -10 -131 -88q0 -8 -5 -7.5t-5 8.5zM188 126l-1 -1q12 -50 48 -86t79 -22q17 7 21.5 20.5t-5.5 29.5
q-29 44 -142 59zM165 388l-79 12q47 -25 74 -50q1 12 5 38z" />
    <glyph glyph-name="G.swsh" unicode="&#xe053;" horiz-adv-x="424" 
d="M75 430q-36 -148 72 -156q79 -7 149 99q12 37 40 73q12 -4 20 -12.5t10 -15.5l2 -6q-15 -73 -28 -120q54 10 106 13l-1 -8q-51 -1 -109 -15q-37 -121 -76 -175t-86 -44q-25 4 -34 25.5t-4 45.5t16 43q38 59 123 93q5 45 16 82q-67 -92 -144 -87q-133 9 -129 142
q-68 -22 -142 -20q1 -32 1.5 -74.5t-10 -89.5t-25.5 -87.5t-45 -68.5t-69 -32q-61 -6 -100.5 43.5t-42.5 112.5q-57 -3 -115 13.5t-106.5 47.5t-78.5 82t-30 112q0 9 3 12t6 -0.5t3 -11.5q-2 -75 47.5 -134.5t122.5 -88t147 -24.5q-1 54 18 107.5t61 68.5q52 19 67 -22
q15 -40 -17 -91q-40 -65 -120 -71q3 -59 39.5 -105t94.5 -40q46 5 78 44.5t45 96t17 108t1 93.5q-82 4 -152 51.5t-91 122.5q-18 66 3 104.5t65 32.5t87 -56q80 -90 96 -248q70 -3 142 21q4 61 31 120q76 176 214 194q21 2 29.5 -7t6 -23.5t-11.5 -31.5q-95 -183 -212 -238z
M-132 396q-8 74 -31 133q-27 68 -67 108q-65 64 -109 39t-25 -110q15 -68 85 -119q68 -49 147 -51zM255 716q-64 -24 -140 -172q-24 -55 -37 -103q59 32 114 100t88 136q12 23 5.5 34t-30.5 5zM274 260q-79 -33 -114 -87q-7 -12 -11 -27t-5 -31.5t7.5 -28.5t26.5 -15
q83 -14 96 189zM-408 199q72 4 111 67q30 47 16 81q-13 31 -56 15q-36 -13 -54 -63.5t-17 -99.5z" />
    <glyph glyph-name="H.swsh" unicode="&#xe054;" horiz-adv-x="560" 
d="M212 276q81 -15 133 -61q-2 48 1.5 100.5t16 116t33 115.5t59 93.5t88.5 54.5q60 17 91 -26q21 -28 22 -68.5t-20 -74.5q-29 -53 -90.5 -80t-130.5 -27q-27 -123 -40 -236q20 -24 28 -63.5t-11 -44.5q-15 -1 -25 15t-14.5 41t-6 44t-1.5 33q-56 50 -134 63
q-23 -114 -42 -155q-32 -73 -88 -100q-34 -16 -60 3t-36 51.5t-8 62.5q1 37 25 73q55 80 170 73q13 83 51 351q-48 -65 -135 -98.5t-173 -31.5q1 -32 1.5 -74.5t-10 -89.5t-25.5 -87.5t-45 -68.5t-69 -32q-61 -6 -100.5 43.5t-42.5 112.5q-57 -3 -115 13.5t-106.5 47.5
t-78.5 82t-30 112q0 9 3 12t6 -0.5t3 -11.5q-2 -75 47.5 -134.5t122.5 -88t147 -24.5q-1 54 18 107.5t61 68.5q52 19 67 -22q15 -40 -17 -91q-40 -65 -120 -71q3 -59 39.5 -105t94.5 -40q46 5 78 44.5t45 96t17 108t1 93.5q-82 4 -152 51.5t-91 122.5q-18 66 3 104.5
t65 32.5t87 -56q80 -90 96 -248q86 -4 176.5 34.5t134.5 112.5q6 1 18 4.5t22.5 6t18.5 3.5q-9 -63 -73 -393zM-93 509q-8 74 -31 133q-27 68 -67 108q-69 65 -111 40t-23 -111q15 -68 85 -119q68 -49 147 -51zM415 426q57 -2 111.5 18t91 65t29.5 104q-3 31 -22 55.5
t-50 22.5q-27 -2 -50.5 -19.5t-37.5 -37t-28 -55t-19.5 -55t-14.5 -57zM171 273q-51 4 -94.5 -15t-67.5 -55q-22 -30 -25 -69q-4 -50 22.5 -92.5t71.5 -21.5q20 9 34.5 30.5t24 53.5t15 57.5t11.5 62.5zM-369 312q72 4 111 67q30 47 16 81q-13 31 -56 15q-36 -13 -54 -63.5
t-17 -99.5zM375 174q-1 -5 -1.5 -19t0 -33t5 -31.5t12.5 -9.5q12 5 9.5 24.5t-11 40t-14.5 28.5z" />
    <glyph glyph-name="I.swsh" unicode="&#xe055;" horiz-adv-x="376" 
d="M256 697q14 1 24 -15.5t14 -41.5t5.5 -45t0.5 -33q-2 -142 -26 -242q28 -2 40 -4l-2 -8l-40 4q-39 -165 -148 -234q-33 -21 -71 -21q-43 -1 -65.5 22.5t-15.5 65.5q6 36 30 68q25 35 66 61q64 41 151 47q27 102 48 243q-48 -65 -134.5 -99t-173.5 -32q1 -32 1.5 -74.5
t-10 -89.5t-25.5 -87.5t-45 -68.5t-69 -32q-61 -6 -100.5 43.5t-42.5 112.5q-57 -3 -115 13.5t-106.5 47.5t-78.5 82t-30 112q0 9 3 12t6 -0.5t3 -11.5q-2 -75 47.5 -134.5t122.5 -88t147 -24.5q-1 54 18 107.5t61 68.5q52 19 67 -22q15 -40 -17 -91q-40 -65 -120 -71
q3 -59 39.5 -105t94.5 -40q46 5 78 44.5t45 96t17 108t1 93.5q-82 4 -152 51.5t-91 122.5q-18 66 3 104.5t65 32.5t87 -56q80 -90 96 -248q87 -4 179 35t132 112q-8 11 -17 36t-11 47.5t14 25.5zM-49 442q-8 74 -31 133q-27 68 -67 108q-65 64 -109 39t-25 -110
q15 -68 85 -119q68 -49 147 -51zM204 270q8 28 11 42q-141 -14 -206 -104q-25 -37 -29 -65q-12 -77 73 -77q22 0 40.5 9t34 29t26 36.5t22 46.5t15.5 42.5zM-325 245q72 4 111 67q30 47 16 81q-13 31 -56 15q-36 -13 -54 -63.5t-17 -99.5zM271 601q4 7 3.5 50t-15.5 38
q-14 -10 -6.5 -42t18.5 -46z" />
    <glyph glyph-name="J.swsh" unicode="&#xe056;" horiz-adv-x="323" 
d="M229 308q-20 -79 -38 -130t-49.5 -93t-71.5 -50t-66 11.5t-28.5 51.5t10.5 67q31 56 84.5 94t116.5 51q10 67 30.5 191l27.5 166q-48 -64 -134 -97t-172 -31q1 -32 1.5 -74.5t-10 -89.5t-25.5 -87.5t-45 -68.5t-69 -32q-61 -6 -100.5 43.5t-42.5 112.5q-57 -3 -115 13.5
t-106.5 47.5t-78.5 82t-30 112q0 9 3 12t6 -0.5t3 -11.5q-2 -75 47.5 -134.5t122.5 -88t147 -24.5q-1 54 18 107.5t61 68.5q52 19 67 -22q15 -40 -17 -91q-40 -65 -120 -71q3 -59 39.5 -105t94.5 -40q46 5 78 44.5t45 96t17 108t1 93.5q-82 4 -152 51.5t-91 122.5
q-18 66 3 104.5t65 32.5t87 -56q80 -90 96 -248q84 -4 175 33.5t133 106.5q46 13 55 14q-4 -110 -71 -384q36 2 67 -1v-9q-32 3 -69 1zM-69 548q-8 74 -31 133q-27 68 -67 108q-65 64 -109 39t-25 -110q15 -68 85 -119q68 -49 147 -51zM184 300q-64 -17 -114.5 -53
t-74.5 -87q-12 -31 -10.5 -60t24 -46.5t58.5 -10.5q25 5 45 28t33.5 62t22 77.5t16.5 89.5zM-345 351q72 4 111 67q30 47 16 81q-13 31 -56 15q-36 -13 -54 -63.5t-17 -99.5z" />
    <glyph glyph-name="K.swsh" unicode="&#xe057;" horiz-adv-x="524" 
d="M236 374q38 36 91 100.5t102.5 117.5t101.5 85q55 36 70 9q7 -10 3.5 -23.5t-13.5 -19.5q-12 -12 -29 2q-3 4 -3 7t2.5 3.5t6.5 -2.5q9 -11 19 -4q7 6 9.5 15.5t-3.5 18.5q-11 16 -56 -12q-54 -34 -105 -89.5t-102 -118.5t-92 -99q34 9 57 -7t33.5 -52t16 -73t11 -81
t11.5 -65q7 -23 15.5 -32t18.5 -4t18.5 14t19.5 25q77 117 99 212h8q-20 -89 -99 -216q-14 -22 -33 -41q-38 -28 -73 1q-24 21 -36.5 74.5t-16 103t-17.5 88.5t-42 38q-13 -62 -27 -111q-8 -31 -18.5 -59.5t-28 -61.5t-42.5 -55.5t-54 -28.5q-40 -8 -66 11.5t-28 51.5t11 67
q27 54 86 95q11 5 11 2q0 -4 -5 -8q-59 -43 -84 -94q-12 -31 -10.5 -59.5t24 -46.5t58.5 -11q14 4 26.5 13t23 24.5t18.5 29t15.5 37l12 37t10 41l7.5 37t7 36t5 28.5q16 84 54 343q-48 -66 -135 -100t-174 -32q1 -32 1.5 -74.5t-10 -89.5t-25.5 -87.5t-45 -68.5t-69 -32
q-61 -6 -100.5 43.5t-42.5 112.5q-57 -3 -115 13.5t-106.5 47.5t-78.5 82t-30 112q0 9 3 12t6 -0.5t3 -11.5q-2 -75 47.5 -134.5t122.5 -88t147 -24.5q-1 54 18 107.5t61 68.5q52 19 67 -22q15 -40 -17 -91q-40 -65 -120 -71q3 -59 39.5 -105t94.5 -40q46 5 78 44.5t45 96
t17 108t1 93.5q-82 4 -152 51.5t-91 122.5q-18 66 3 104.5t65 32.5t87 -56q80 -90 96 -248q85 -4 175 33.5t132 107.5q1 10 59 16q-1 -88 -56 -326zM-82 544q-8 74 -31 133q-28 71 -65 108q-71 69 -113 42.5t-23 -113.5q15 -68 85 -119q68 -49 147 -51zM-358 347
q72 4 111 67q30 47 16 81q-13 31 -56 15q-36 -13 -54 -63.5t-17 -99.5z" />
    <glyph glyph-name="L.swsh" unicode="&#xe058;" horiz-adv-x="462" 
d="M154 189l-16 -38q21 -8 59 -27.5t63.5 -29.5t58.5 -16.5t62 6t54 43.5l24 -25q-27 -33 -59 -44.5t-68 -2.5t-65.5 22.5t-70 35.5t-63.5 31q-43 -82 -95 -82q-28 4 -37.5 25.5t1.5 44.5q29 54 111 29q2 6 4.5 17.5t3.5 15.5q12 56 24 123.5t19.5 116l20 129l18.5 121.5
q-45 -73 -136 -111t-184 -36q1 -32 1.5 -74.5t-10 -89.5t-25.5 -87.5t-45 -68.5t-69 -32q-61 -6 -100.5 43.5t-42.5 112.5q-57 -3 -115 13.5t-106.5 47.5t-78.5 82t-30 112q0 9 3 12t6 -0.5t3 -11.5q-2 -75 47.5 -134.5t122.5 -88t147 -24.5q-1 54 18 107.5t61 68.5
q52 19 67 -22q15 -40 -17 -91q-40 -65 -120 -71q3 -59 39.5 -105t94.5 -40q46 5 78 44.5t45 96t17 108t1 93.5q-82 4 -152 51.5t-91 122.5q-18 66 3 104.5t65 32.5t87 -56q80 -90 96 -248q87 -4 179 35t132 112l14 2q15 3 31 5.5t19 2.5q-4 -118 -32 -259t-72 -254z
M-125 546q-8 74 -31 133q-27 68 -67 108q-65 64 -109 39t-25 -110q15 -68 85 -119q68 -49 147 -51zM-401 349q72 4 111 67q30 47 16 81q-13 31 -56 15q-36 -13 -54 -63.5t-17 -99.5zM110 153q-74 23 -100 -26q-11 -22 -2 -37.5t30 -18.5q49 0 72 82z" />
    <glyph glyph-name="M.swsh" unicode="&#xe059;" horiz-adv-x="565" 
d="M-6 127q-7 129 38 387q-48 -63 -133.5 -95.5t-170.5 -30.5q1 -32 1.5 -74.5t-10 -89.5t-25.5 -87.5t-45 -68.5t-69 -32q-61 -6 -100.5 43.5t-42.5 112.5q-57 -3 -115 13.5t-106.5 47.5t-78.5 82t-30 112q0 9 3 12t6 -0.5t3 -11.5q-2 -75 47.5 -134.5t122.5 -88t147 -24.5
q-1 54 18 107.5t61 68.5q52 19 67 -22q15 -40 -17 -91q-40 -65 -120 -71q3 -59 39.5 -105t94.5 -40q46 5 78 44.5t45 96t17 108t1 93.5q-82 4 -152 51.5t-91 122.5q-18 66 3 104.5t65 32.5t87 -56q80 -90 96 -248q86 -4 177.5 34.5t131.5 109.5q5 12 22 19.5t31 7.5
q12 -82 -10 -187q66 160 134 187q60 24 60 -58q0 -41 -17 -127q45 115 100 213t98 114q44 19 50 -50q7 -72 -40 -325q-10 -52 -12 -65q2 -2 4 -4.5l4.5 -5.5t3.5 -5q40 -59 33 -174q-2 -49 -13.5 -86.5t-29.5 -47.5q-19 -11 -44 7q-59 48 -8 328q-27 0 -59 -22l-5 8
q36 25 65 23q7 38 17 87.5l18 86.5l16 77t12 68t5.5 50.5t-2.5 32.5t-13 8q-46 -16 -108.5 -137.5t-101.5 -233.5q-11 -52 -16 -82.5t-8.5 -67t3 -54.5t22.5 -21l-2 -7q-88 9 -60 191q4 20 37 172q21 97 1 99q-4 1 -8 -1q-85 -29 -165 -292q-15 -53 -20.5 -111.5t2.5 -81.5
q3 -9 8 -13q-21 -7 -33 17t-14 50zM-280 397q-8 74 -31 133q-27 68 -67 108q-68 67 -110.5 41t-23.5 -112q15 -68 85 -119q68 -49 147 -51zM450 258q-12 -66 -19 -108t-12 -88t-2 -72.5t14 -35.5q9 -7 19 -1q33 18 40 128q5 110 -33 169q-4 6 -7 8zM-556 200q72 4 111 67
q30 47 16 81q-13 31 -56 15q-36 -13 -54 -63.5t-17 -99.5z" />
    <glyph glyph-name="N.swsh" unicode="&#xe05a;" horiz-adv-x="402" 
d="M96 608q16 -99 -13 -233q42 111 99.5 213t101.5 118q44 19 51 -50q7 -76 -44 -342q-1 -7 -4 -20q-3 -18 -5 -27q32 -23 45.5 -94t2 -141t-45.5 -90q-13 -7 -36 3q-39 21 -39 106t24 225q-29 -3 -58 -22l-6 9q37 24 66 24q7 38 17 87l17.5 86.5l15.5 77.5t12.5 68t6 50.5
t-2.5 32.5t-13 8q-36 -13 -86.5 -99.5t-86 -172t-50.5 -136.5q-26 -87 -39 -224q-59 38 15 487q-48 -64 -134 -97t-172 -31q1 -32 1.5 -74.5t-10 -89.5t-25.5 -87.5t-45 -68.5t-69 -32q-61 -6 -100.5 43.5t-42.5 112.5q-57 -3 -115 13.5t-106.5 47.5t-78.5 82t-30 112
q0 9 3 12t6 -0.5t3 -11.5q-2 -75 47.5 -134.5t122.5 -88t147 -24.5q-1 54 18 107.5t61 68.5q52 19 67 -22q15 -40 -17 -91q-40 -65 -120 -71q3 -59 39.5 -105t94.5 -40q46 5 78 44.5t45 96t17 108t1 93.5q-82 4 -152 51.5t-91 122.5q-18 66 3 104.5t65 32.5t87 -56
q80 -90 96 -248q87 -4 179 35t132 112q23 29 50 29zM-273 433q-8 74 -31 133q-27 68 -67 108q-65 64 -109 39t-25 -110q15 -68 85 -119q68 -49 147 -51zM281 254q-12 -65 -19 -108t-12.5 -88.5t-2.5 -71.5t13 -34q10 -7 19 -3q30 16 40 82.5t-1.5 134t-36.5 88.5zM-549 236
q72 4 111 67q30 47 16 81q-13 31 -56 15q-36 -13 -54 -63.5t-17 -99.5z" />
    <glyph glyph-name="O.swsh" unicode="&#xe05b;" horiz-adv-x="395" 
d="M118 55q-37 14 -57.5 56t-23 98t1.5 105t13 95q-51 -54 -131 -82t-159 -26q1 -32 1.5 -74.5t-10 -89.5t-25.5 -87.5t-45 -68.5t-69 -32q-61 -6 -100.5 43.5t-42.5 112.5q-57 -3 -115 13.5t-106.5 47.5t-78.5 82t-30 112q0 9 3 12t6 -0.5t3 -11.5q-2 -75 47.5 -134.5
t122.5 -88t147 -24.5q-1 54 18 107.5t61 68.5q52 19 67 -22q15 -40 -17 -91q-40 -65 -120 -71q3 -59 39.5 -105t94.5 -40q46 5 78 44.5t45 96t17 108t1 93.5q-82 4 -152 51.5t-91 122.5q-18 66 3 104.5t65 32t87 -55.5q80 -92 96 -248q78 -4 163 28t131 93q58 228 164 266
q24 8 43.5 -3t29.5 -33q8 -4 13 -10q22 -24 31.5 -84t4.5 -135q-12 -167 -70 -283q-45 -89 -107 -98q-24 -3 -47 5zM108 418q0 -2 -8.5 -42.5t-10 -52.5t-7 -48.5t-4.5 -55.5l2.5 -47t9.5 -48.5t20 -36.5q20 -26 43 -29t44 12t38 35.5t30 45.5q55 106 68 280q12 165 -34 216
q24 -90 -38 -166t-153 -63zM-246 310q-8 74 -31 133q-27 68 -67 108q-70 68 -111.5 42t-22.5 -113q15 -68 85 -119q68 -49 147 -51zM290 651q-39 22 -108 -81q-3 -4 -6 -1.5t-1 6.5q34 52 62.5 73.5t46.5 14.5q-13 21 -32 26t-38 -10q-55 -47 -104 -251q59 -8 106.5 23.5
t68 86.5t5.5 113zM-522 113q72 4 111 67q30 47 16 81q-13 31 -56 15q-36 -13 -54 -63.5t-17 -99.5z" />
    <glyph glyph-name="P.swsh" unicode="&#xe05c;" horiz-adv-x="419" 
d="M311 450q49 180 1 248q-17 23 -56 21q-77 -3 -127 -145q-4 -70 -53 -302q53 -49 46 -168q-2 -44 -13.5 -77t-30.5 -42q-20 -9 -42 7q-58 41 -9 290q-28 0 -59 -19l-4 6q35 23 65 21q9 44 31.5 140.5t31 145.5t3.5 67q-47 -66 -134.5 -100.5t-175.5 -32.5q1 -32 1.5 -74.5
t-10 -89.5t-25.5 -87.5t-45 -68.5t-69 -32q-61 -6 -100.5 43.5t-42.5 112.5q-57 -3 -115 13.5t-106.5 47.5t-78.5 82t-30 112q0 9 3 12t6 -0.5t3 -11.5q-2 -75 47.5 -134.5t122.5 -88t147 -24.5q-1 54 18 107.5t61 68.5q52 19 67 -22q15 -40 -17 -91q-40 -65 -120 -71
q3 -59 39.5 -105t94.5 -40q46 5 78 44.5t45 96t17 108t1 93.5q-82 4 -152 51.5t-91 122.5q-18 66 3 104.5t65 32t87 -55.5q80 -92 96 -248q86 -4 177.5 35t133.5 112q36 0 34 -71q22 56 51 91t75 40q44 5 72.5 -15t39 -51.5t11.5 -73.5t-4.5 -76.5t-13.5 -64.5
q41 -12 67 -41.5t31 -70.5l-5 -2q-12 82 -95 107q-53 -162 -154 -191q-24 -6 -44.5 4t-28.5 32q-18 48 9 94q23 39 73 59t97 15zM-223 519q-8 74 -31 133q-27 68 -67 108q-69 66 -111 40.5t-23 -111.5q15 -68 85 -119q68 -49 147 -51zM310 444q-48 4 -94 -14t-70 -56
q-26 -43 -9 -90q10 -23 31.5 -31t41.5 5q50 32 100 186zM-499 322q72 4 111 67q30 47 16 81q-13 31 -56 15q-36 -13 -54 -63.5t-17 -99.5zM75 263q-16 -77 -24.5 -126t-9 -91.5t12.5 -52.5q10 -7 20 -1q35 18 39 112q5 102 -38 159z" />
    <glyph glyph-name="Q.swsh" unicode="&#xe05d;" horiz-adv-x="450" 
d="M365 693q37 -17 53 -64q15 -42 9 -105q-10 -103 -64.5 -200t-136.5 -173q10 -8 51.5 -46t65 -57t62 -45t71.5 -36t63 -5q-9 -22 -28.5 -26t-46.5 9.5t-54.5 31.5t-60.5 47l-54.5 49l-47 45.5l-27.5 27.5q-101 -91 -174 -91q-37 0 -40 42q-4 45 30 84q25 28 57 32
q48 7 126 -56q81 75 135.5 171t64.5 196q6 58 -8 102q-14 40 -50.5 58t-75.5 5q-34 -11 -61.5 -33t-46.5 -53t-28.5 -52.5t-21.5 -53.5q54 -12 106.5 -47.5t54.5 -80.5q2 -39 -27 -65t-65.5 -27.5t-69.5 13.5q-95 55 -72 190q-49 -62 -133.5 -94t-169.5 -30q1 -32 1.5 -74.5
t-10 -89.5t-25.5 -87.5t-45 -68.5t-69 -32q-61 -6 -100.5 43.5t-42.5 112.5q-57 -3 -115 13.5t-106.5 47.5t-78.5 82t-30 112q0 9 3 12t6 -0.5t3 -11.5q-2 -75 47.5 -134.5t122.5 -88t147 -24.5q-1 54 18 107.5t61 68.5q52 19 67 -22q15 -40 -17 -91q-40 -65 -120 -71
q3 -59 39.5 -105t94.5 -40q46 5 78 44.5t45 96t17 108t1 93.5q-82 4 -152 51.5t-91 122.5q-18 66 3 104.5t65 32t87 -55.5q80 -92 96 -248q87 -4 178 34.5t132 110.5q0 2 1 3q9 31 34.5 69t66.5 76t91.5 49t110.5 -13zM-257 365q-8 74 -31 133q-27 68 -67 108
q-70 68 -111.5 42t-22.5 -113q15 -68 85 -119q68 -49 147 -51zM125 487q-11 -40 -16.5 -67.5t-3 -63t20.5 -51.5q39 -36 97.5 -13.5t54.5 77.5q-3 42 -53 75t-100 43zM-533 168q72 4 111 67q30 47 16 81q-13 31 -56 15q-36 -13 -54 -63.5t-17 -99.5zM105 189
q-36 -22 -60 -75q-20 -47 1 -50q70 0 167 87l-20 15.5t-20.5 14t-23.5 11.5t-22 3t-22 -6z" />
    <glyph glyph-name="R.swsh" unicode="&#xe05e;" horiz-adv-x="438" 
d="M154 613q40 91 113 101q117 16 129 -101q10 -98 -48 -231q-34 -78 -68 -110q23 -30 69 -108q25 -44 47 -76t51.5 -63t57.5 -45t63.5 -12.5t72.5 23.5q-20 -69 -82 -66q-25 1 -51.5 18t-45 35.5t-45.5 58t-38.5 58.5l-37.5 64q-44 77 -68 107q-46 -39 -86 -35
q-17 3 -28 15.5t-10 29.5q0 17 11 33q17 29 50 20q27 -8 51 -35q23 38 43 88.5t34 107t11 109.5t-26 86q-18 24 -55 23q-40 -2 -69 -35.5t-46 -76.5q-6 -52 -50 -266q8 -6 12 -13q40 -53 34 -154q-7 -98 -44 -120q-20 -9 -44 7q-58 42 -7 291q-25 0 -59 -19l-5 6
q37 22 66 22q9 47 28 128t29 131.5t10 76.5q-50 -61 -133.5 -91.5t-166.5 -28.5q1 -32 1.5 -74.5t-10 -89.5t-25.5 -87.5t-45 -68.5t-69 -32q-61 -6 -100.5 43.5t-42.5 112.5q-57 -3 -115 13.5t-106.5 47.5t-78.5 82t-30 112q0 9 3 12t6 -0.5t3 -11.5q-2 -75 47.5 -134.5
t122.5 -88t147 -24.5q-1 54 18 107.5t61 68.5q52 19 67 -22q15 -40 -17 -91q-40 -65 -120 -71q3 -59 39.5 -105t94.5 -40q46 5 78 44.5t45 96t17 108t1 93.5q-82 4 -152 51.5t-91 122.5q-18 66 3 104.5t65 32t87 -55.5q80 -92 96 -248q86 -4 177 34.5t132 109.5
q18 -5 22 -34.5t0 -70.5zM-185 575q-8 74 -31 133q-27 68 -67 108q-68 67 -110.5 41t-23.5 -112q15 -68 85 -119q68 -49 147 -51zM-461 378q72 4 111 67q30 47 16 81q-13 31 -56 15q-36 -13 -54 -63.5t-17 -99.5zM101 321q-12 -58 -19 -96t-12.5 -78.5t-2.5 -63.5t14 -31
q9 -7 20 -2q16 9 26.5 40.5t12.5 73.5q6 97 -32 148q-2 4 -7 9zM257 286q-24 29 -49 35q-26 6 -42 -17q-9 -14 -9 -28q-1 -14 8 -25t23 -12q18 -3 37.5 12.5t31.5 34.5z" />
    <glyph glyph-name="S.swsh" unicode="&#xe05f;" horiz-adv-x="522" 
d="M300 490l8 4q28 -49 99.5 -49.5t89.5 51.5q11 45 -24.5 84t-97.5 58t-130.5 23t-131.5 -19t-92 -70q-16 -26 -17 -48.5t12 -41t33 -34.5t47.5 -32.5l53.5 -32t54 -35t46 -39.5q59 -1 117 -21.5t83 -62.5l-8 -4q-22 38 -76 57.5t-108 20.5q31 -46 31.5 -98t-30 -99
t-77.5 -60q-27 -7 -63 -4q-34 3 -58 18q-45 27 -45 76q0 57 49 103q46 41 114 60q-14 12 -34 27l-35.5 26t-34.5 26t-31 27t-26 29t-18 31.5t-8 35.5t4 40q-51 -58 -133 -87.5t-163 -27.5q1 -32 1.5 -74.5t-10 -89.5t-25.5 -87.5t-45 -68.5t-69 -32q-61 -6 -100.5 43.5
t-42.5 112.5q-57 -3 -115 13.5t-106.5 47.5t-78.5 82t-30 112q0 9 3 12t6 -0.5t3 -11.5q-2 -75 47.5 -134.5t122.5 -88t147 -24.5q-1 54 18 107.5t61 68.5q52 19 67 -22q15 -40 -17 -91q-40 -65 -120 -71q3 -59 39.5 -105t94.5 -40q46 5 78 44.5t45 96t17 108t1 93.5
q-82 4 -152 51.5t-91 122.5q-18 66 3 104.5t65 32.5t87 -56q80 -90 96 -248q87 -4 179 35t132 112q55 108 199 124q119 14 225 -37q91 -43 103 -104q7 -38 -21 -74q-40 -50 -109.5 -51t-107.5 55zM-308 431q-8 74 -31 133q-27 68 -67 108q-65 64 -109 39t-25 -110
q15 -68 85 -119q68 -49 147 -51zM187 288q-74 -20 -116 -59q-46 -43 -46 -97q0 -46 40 -69q23 -13 55 -16t60 4q53 17 67 63t-5 94t-55 80zM-584 234q72 4 111 67q30 47 16 81q-13 31 -56 15q-36 -13 -54 -63.5t-17 -99.5z" />
    <glyph glyph-name="T.swsh" unicode="&#xe060;" horiz-adv-x="481" 
d="M284 690q4 -72 -53 -335q51 -38 46 -168q-5 -98 -44 -120q-20 -9 -43 7q-55 38 -18 249q-49 -62 -133.5 -93.5t-168.5 -29.5q1 -32 1.5 -74.5t-10 -89.5t-25.5 -87.5t-45 -68.5t-69 -32q-61 -6 -100.5 43.5t-42.5 112.5q-57 -3 -115 13.5t-106.5 47.5t-78.5 82t-30 112
q0 9 3 12t6 -0.5t3 -11.5q-2 -75 47.5 -134.5t122.5 -88t147 -24.5q-1 54 18 107.5t61 68.5q52 19 67 -22q15 -40 -17 -91q-40 -65 -120 -71q3 -59 39.5 -105t94.5 -40q46 5 78 44.5t45 96t17 108t1 93.5q-82 4 -152 51.5t-91 122.5q-18 66 3 104.5t65 32.5t87 -56
q80 -90 96 -248q85 -4 175 33.5t132 106.5q7 33 22.5 97.5l24 101.5t17 79.5t10.5 66.5q-12 1 -55 5t-72.5 5.5t-74.5 2.5t-76 -4.5t-61.5 -15t-45.5 -30t-14 -48.5q0 -5 -2.5 -7t-5 0t-2.5 7q-4 46 31.5 72t98.5 31.5t141.5 2.5t164 -11t161 -13t137 -1t88.5 23q13 9 13 28
q1 12 -9 12h-2q-5 0 -11 -10q-5 -8 -10 -4q-3 2 1 8q7 14 18 16q15 2 20 -9.5t0.5 -26t-14.5 -21.5q-40 -29 -152.5 -29.5t-233.5 14.5zM-138 209q-8 74 -31 133q-27 68 -67 108q-68 69 -110.5 42.5t-23.5 -113.5q15 -68 85 -119q68 -49 147 -51zM-414 12q72 4 111 67
q30 47 16 81q-13 31 -56 15q-36 -13 -54 -63.5t-17 -99.5zM229 341q-12 -57 -19 -95t-12 -77.5t-2 -62t13 -30.5q9 -7 19 -2q35 19 40 114q7 114 -39 153z" />
    <glyph glyph-name="U.swsh" unicode="&#xe061;" horiz-adv-x="443" 
d="M47 76q-43 -13 -48 48q-7 74 55 330q58 236 62 296q3 30 -1 46q-47 -67 -134.5 -101.5t-175.5 -32.5q1 -32 1.5 -74.5t-10 -89.5t-25.5 -87.5t-45 -68.5t-69 -32q-61 -6 -100.5 43.5t-42.5 112.5q-57 -3 -115 13.5t-106.5 47.5t-78.5 82t-30 112q0 9 3 12t6 -0.5t3 -11.5
q-2 -75 47.5 -134.5t122.5 -88t147 -24.5q-1 54 18 107.5t61 68.5q52 19 67 -22q15 -40 -17 -91q-40 -65 -120 -71q3 -59 39.5 -105t94.5 -40q46 5 78 44.5t45 96t17 108t1 93.5q-82 4 -152 51.5t-91 122.5q-18 66 3 104.5t65 32.5t87 -56q80 -90 96 -248q87 -4 179 35
t132 112l3 -1q30 -13 39 -60.5t-1.5 -112t-28 -141.5t-39.5 -148.5t-37.5 -134t-20.5 -97.5t11 -38q37 10 92.5 95t95 167.5t57.5 133.5q30 87 51 221q18 -13 19.5 -74.5t-11.5 -151t-38 -203.5q-34 -151 -27 -187q6 -35 44 9q36 42 84.5 116t54.5 90h9q-8 -20 -55.5 -96.5
t-84.5 -117.5q-45 -52 -73 -23q-38 39 -20 215q7 59 25 124q-50 -113 -112 -213t-106 -113zM-203 671q-8 74 -31 133q-27 68 -67 108q-65 64 -109 39t-25 -110q15 -68 85 -119q68 -49 147 -51zM-479 474q72 4 111 67q30 47 16 81q-13 31 -56 15q-36 -13 -54 -63.5t-17 -99.5
z" />
    <glyph glyph-name="V.swsh" unicode="&#xe062;" horiz-adv-x="347" 
d="M49 437q18 185 10 237q-45 -70 -134 -106t-180 -34q1 -32 1.5 -74.5t-10 -89.5t-25.5 -87.5t-45 -68.5t-69 -32q-61 -6 -100.5 43.5t-42.5 112.5q-57 -3 -115 13.5t-106.5 47.5t-78.5 82t-30 112q0 9 3 12t6 -0.5t3 -11.5q-2 -75 47.5 -134.5t122.5 -88t147 -24.5
q-1 54 18 107.5t61 68.5q52 19 67 -22q15 -40 -17 -91q-40 -65 -120 -71q3 -59 39.5 -105t94.5 -40q46 5 78 44.5t45 96t17 108t1 93.5q-82 4 -152 51.5t-91 122.5q-18 66 3 104.5t65 32t87 -55.5q80 -92 96 -248q87 -4 179 35t132 112q5 1 30 4q16 -18 21 -63t1 -102
t-12 -122l-16 -126.5t-13 -111.5t-2.5 -81t15.5 -32q29 13 59 64q31 57 79 198l36.5 102.5t41.5 102.5t53 101.5t61.5 80t76.5 59.5t88 20q18 0 31 -9t15 -25q1 -15 -10.5 -29.5t-26.5 -9.5q-11 4 -12 18.5t7 18.5q7 6 8.5 1.5t-3.5 -7.5q-6 -4 -4.5 -12.5t7.5 -10.5
q9 -5 17.5 7.5t7.5 22.5q-1 12 -13.5 20t-23.5 7q-45 -2 -85.5 -22.5t-74 -59.5t-60 -79.5t-52 -99.5t-41.5 -100.5t-36 -101.5q-59 -158 -79 -197q-38 -57 -62 -67q-48 -23 -58 57q-7 67 18 295q2 23 4 37zM-263 543q-8 74 -31 133q-27 68 -67 108q-69 67 -111 41t-23 -112
q15 -68 85 -119q68 -49 147 -51zM-539 346q72 4 111 67q30 47 16 81q-13 31 -56 15q-36 -13 -54 -63.5t-17 -99.5z" />
    <glyph glyph-name="W.swsh" unicode="&#xe063;" horiz-adv-x="551" 
d="M95 384q0 -2 -2 -25.5t-2.5 -33.5t-2 -35.5t-1 -39.5t1.5 -36t4.5 -35.5t8 -28t12 -22.5t17.5 -11q19 -6 40 21q22 30 53 153q25 105 48 145q32 53 45 7q5 -19 -4 -119.5t-7.5 -180t31.5 -71.5q15 3 29 20q20 24 37 74q16 50 41 179q14 74 29 129t40 116t62.5 98.5
t85.5 46.5q13 3 14 -1q1 -2 -3 -5q-4 -1 -9 -2q-46 -9 -82.5 -45.5t-60.5 -97.5t-38.5 -114t-28.5 -126q-22 -119 -43 -181q-18 -53 -37 -76q-18 -20 -33 -24q-116 -34 -61 344q2 13 2 14q0 20 -8 1q-18 -33 -42 -133q-28 -124 -58 -161q-21 -24 -45 -21q-100 10 -88 261
q-51 -13 -108 -11q1 -32 1.5 -74.5t-10 -89.5t-25.5 -87.5t-45 -68.5t-69 -32q-61 -6 -100.5 43.5t-42.5 112.5q-57 -3 -115 13.5t-106.5 47.5t-78.5 82t-30 112q0 9 3 12t6 -0.5t3 -11.5q-2 -75 47.5 -134.5t122.5 -88t147 -24.5q-1 54 18 107.5t61 68.5q52 19 67 -22
q15 -40 -17 -91q-40 -65 -120 -71q3 -59 39.5 -105t94.5 -40q46 5 78 44.5t45 96t17 108t1 93.5q-82 4 -152 51.5t-91 122.5q-18 66 3 104.5t65 32.5t87 -56q80 -90 96 -248q48 -3 109 10q13 199 113 253q28 15 49 7q30 -9 43.5 -37.5t10 -59t-18.5 -53.5q-44 -63 -143 -101
zM-76 366q-8 74 -31 133q-27 68 -67 108q-65 64 -109 39t-25 -110q15 -68 85 -119q68 -49 147 -51zM96 392q95 37 134 95q25 33 17 80.5t-48 58.5q-25 5 -48 -15q-46 -44 -55 -219zM-352 169q72 4 111 67q30 47 16 81q-13 31 -56 15q-36 -13 -54 -63.5t-17 -99.5z" />
    <glyph glyph-name="X.swsh" unicode="&#xe064;" horiz-adv-x="438" 
d="M466 685q11 -24 0 -56.5t-41.5 -70.5t-59 -67.5t-69 -67.5t-53.5 -52q42 -268 66 -310q10 -18 19 -11q24 18 46 101q2 11 5 11q5 1 2 -12q-18 -79 -48 -105q-47 -41 -89 89q-22 69 -45 195l-59.5 -59.5l-54.5 -58t-48.5 -56.5t-36.5 -52t-24.5 -49t-7 -42.5t11.5 -35.5
q5 -7 -2 -9q-5 -1 -8 4q-12 17 -12.5 39t7.5 44.5t26 51t38.5 54.5t50.5 58.5l57 59.5l62 61q-3 13 -16 85q-45 -71 -133 -107t-180 -34q1 -32 1.5 -74.5t-10 -89.5t-25.5 -87.5t-45 -68.5t-69 -32q-61 -6 -100.5 43.5t-42.5 112.5q-57 -3 -115 13.5t-106.5 47.5t-78.5 82
t-30 112q0 9 3 12t6 -0.5t3 -11.5q-2 -75 47.5 -134.5t122.5 -88t147 -24.5q-1 54 18 107.5t61 68.5q52 19 67 -22q15 -40 -17 -91q-40 -65 -120 -71q3 -59 39.5 -105t94.5 -40q46 5 78 44.5t45 96t17 108t1 93.5q-82 4 -152 51.5t-91 122.5q-18 66 3 104.5t65 32.5t87 -56
q80 -90 96 -248q87 -4 179 35t132 112q-26 8 -54.5 43t-46.5 77.5t-23.5 83.5t14.5 62q15 17 43 10q71 -18 116 -267q24 9 48 39l6 -4q-26 -34 -53 -43q6 -23 10 -58q14 15 64.5 64t83 83.5t57 78.5t14.5 72q-5 4 -2 7.5t8 -1.5zM-138 292q-8 74 -31 133q-27 68 -67 108
q-68 67 -110.5 41t-23.5 -112q15 -68 85 -119q68 -49 147 -51zM-414 95q72 4 111 67q30 47 16 81q-13 31 -56 15q-36 -13 -54 -63.5t-17 -99.5zM179 448q-21 121 -39.5 185t-43.5 69q-11 2 -17 -6q-30 -41 10 -134.5t90 -113.5z" />
    <glyph glyph-name="Y.swsh" unicode="&#xe065;" horiz-adv-x="419" 
d="M-65 441q48 -3 99 9q5 76 42 153t100 100q46 17 71 -15.5t10 -79.5q-33 -101 -177 -153q-20 -129 25 -184q19 -22 54 -16q71 11 108 148q31 215 77 226q15 4 32 -11q27 -20 52 -102q1 -6 0 -10t-3.5 -2t-4.5 10q-21 77 -50 99q-11 7 -19 -8.5t-14.5 -55.5t-11 -81
l-11.5 -105t-13 -108q31 -18 52 -43l-9 -5q-22 27 -46 37q-16 -118 -39.5 -189t-64.5 -82q-28 -7 -44 9q-13 14 -13 50t12 77q34 115 100 143l14 115q-16 -49 -39.5 -79.5t-63.5 -39.5q-41 -10 -69.5 5t-40.5 47.5t-16 67.5t-1 74q-50 -11 -98 -9q1 -32 1.5 -74.5t-10 -89.5
t-25.5 -87.5t-45 -68.5t-69 -32q-61 -6 -100.5 43.5t-42.5 112.5q-57 -3 -115 13.5t-106.5 47.5t-78.5 82t-30 112q0 9 3 12t6 -0.5t3 -11.5q-2 -75 47.5 -134.5t122.5 -88t147 -24.5q-1 54 18 107.5t61 68.5q52 19 67 -22q15 -40 -17 -91q-40 -65 -120 -71q3 -59 39.5 -105
t94.5 -40q46 5 78 44.5t45 96t17 108t1 93.5q-82 4 -152 51.5t-91 122.5q-18 66 3 104.5t65 32.5t87 -56q80 -90 96 -248zM-73 442q-8 74 -31 133q-27 68 -67 108q-65 64 -109 39t-25 -110q15 -68 85 -119q68 -49 147 -51zM174 691q-14 -9 -26 -26t-20 -33.5t-16.5 -44.5
t-12.5 -43t-10.5 -45t-7.5 -36q136 48 169 146q14 42 -10 73.5t-66 8.5zM-349 245q72 4 111 67q30 47 16 81q-13 31 -56 15q-36 -13 -54 -63.5t-17 -99.5zM248 241q-58 -28 -90 -136q-12 -39 -12.5 -71.5t11.5 -47.5q9 -9 20 -5q23 7 38 70.5t33 189.5z" />
    <glyph glyph-name="Z.swsh" unicode="&#xe066;" horiz-adv-x="449" 
d="M32 542q1 -32 1.5 -74.5t-10 -89.5t-25.5 -87.5t-45 -68.5t-69 -32q-61 -6 -100.5 43.5t-42.5 112.5q-57 -3 -115 13.5t-106.5 47.5t-78.5 82t-30 112q0 9 3 12t6 -0.5t3 -11.5q-2 -75 47.5 -134.5t122.5 -88t147 -24.5q-1 54 18 107.5t61 68.5q52 19 67 -22
q15 -40 -17 -91q-40 -65 -120 -71q3 -59 39.5 -105t94.5 -40q46 5 78 44.5t45 96t17 108t1 93.5q-82 4 -152 51.5t-91 122.5q-18 66 3 104.5t65 32.5t87 -56q80 -90 96 -248q90 0 175 36.5t125 108.5q7 0 34.5 1t38.5 0q-48 -195 -136 -355q70 -42 95 -8l7 -5
q-12 -17 -30 -19.5t-35.5 4.5t-41.5 21q-75 -138 -157 -215q32 -2 74.5 -23t76 -43t76.5 -34.5t79 -0.5l-11 -28q-37 -12 -80.5 4t-76.5 42.5t-75 50t-74 23.5q-2 -2 -18 -16q-35 -31 -63 -30q-10 1 -10.5 3t5.5 9q25 27 56 38q82 103 152 247q-20 13 -33 19t-31 4.5
t-26 -20.5l-8 4q21 55 102 2q33 68 121 306q-48 -67 -135.5 -101.5t-175.5 -32.5zM24 551q-8 74 -31 133q-27 68 -67 108q-65 64 -109 39t-25 -110q15 -68 85 -119q68 -49 147 -51zM-252 354q72 4 111 67q30 47 16 81q-13 31 -56 15q-36 -13 -54 -63.5t-17 -99.5z" />
    <glyph glyph-name="a.ss01" unicode="&#xe067;" horiz-adv-x="307" 
d="M-78 246l-29.5 -25.5l-39 -33t-42.5 -33.5t-47 -31t-45.5 -21t-44.5 -8t-38 13q-22 16 -9 42q5 9 15 9q16 0 18 -17q1 -15 -11 -15.5t-13 10.5q0 7 6 14q-8 0 -10 -14q-2 -13 8 -21q14 -12 34 -13t42.5 8t44.5 21.5t47 31.5l43 33t38.5 32l27.5 24q109 88 142 100
q26 15 61 14q53 -2 32 -79q-3 -13 -8.5 -13t-3.5 15q1 4 3 15t2.5 17t-0.5 14t-5.5 12t-12.5 5q-39 1 -62 -56q-21 -51 -7 -81q6 -13 18 -12q19 1 48.5 31.5t42.5 50.5q6 10 21 -20q5 -10 5 -14q-1 -11 -12.5 -37.5l-22 -50t-16 -50.5t6.5 -39q18 -23 49 6q45 40 115 200
q3 8 9 20h10q-1 -2 -16.5 -36.5l-24.5 -53l-25 -49.5t-31.5 -53t-30.5 -35q-29 -25 -62 -8q-13 7 -20 20t-7 29t1.5 31.5t8 34l10.5 30.5t10 26t7 15q-81 -91 -127 -67q-32 17 -26 71q4 42 30 73q-22 -14 -107 -82z" />
    <glyph glyph-name="b.ss01" unicode="&#xe068;" horiz-adv-x="284" 
d="M-148 224l-29.5 -25.5l-39 -33t-42.5 -33.5t-47 -31t-45.5 -21t-44.5 -8t-38 13q-22 16 -9 42q5 9 15 9q16 0 18 -17q1 -15 -11 -15.5t-13 10.5q0 7 6 14q-8 0 -10 -14q-2 -13 8 -21q14 -12 34 -13t42.5 8t44.5 21.5t47 31.5l43 33t38.5 32l27.5 24l66.5 52.5t51 34.5
t43.5 18q3 75 25 151t66.5 139t101.5 76q42 8 59 -14q15 -18 12 -58q-4 -35 -25 -83q-31 -66 -85 -125.5t-119 -89.5q-8 -42 -10 -84q3 -26 18 -6q5 6 15 21q40 60 66 69q16 5 32 -4q38 -26 31.5 -75.5t-42.5 -88.5q40 -6 88 33q46 43 62 104h10q-16 -67 -66 -110
q-53 -46 -101 -35q-13 -11 -32 -18.5t-38 -9.5t-34 7t-18 30q-3 15 6.5 27.5t23.5 16.5q30 9 59 -23q18 25 29 53t7.5 50.5t-25.5 25.5q-7 1 -25 -20.5t-33 -43.5l-15 -23q-28 -25 -39 28q-6 32 -5 72q-30 -2 -155 -103zM201 679q-49 -47 -92.5 -143t-63.5 -194
q62 30 113 87t81 121q19 43 24 80q3 36 -10 52q-12 11 -26 9t-26 -12zM107 178q-26 29 -51 21q-28 -9 -23 -34q6 -22 22.5 -19t29.5 12t22 20z" />
    <glyph glyph-name="c.ss01" unicode="&#xe069;" horiz-adv-x="227" 
d="M-85 251l-29.5 -25.5l-39 -33t-42.5 -33.5t-47 -31t-45.5 -21t-44.5 -8t-38 13q-22 16 -9 42q5 9 15 9q16 0 18 -17q1 -15 -11 -15.5t-13 10.5q0 7 6 14q-8 0 -10 -14q-2 -13 8 -21q14 -12 34 -13t42.5 8t44.5 21.5t47 31.5l43 33t38.5 32l27.5 24q121 99 157 104
q12 6 26 8q21 1 32.5 -7.5t15.5 -33.5t-9 -72q-3 -13 -7 -14q-2 -1 -3 3t1 14q4 17 5.5 31t1.5 31.5t-8 25t-23 2.5q-17 -8 -44 -64.5t-38.5 -109t5.5 -74.5q22 -16 54 -1q37 18 86.5 81.5t82.5 118.5h10l-39.5 -59l-38.5 -53t-49 -57.5t-45 -35.5q-14 -9 -34.5 -11t-33.5 5
q-38 22 -42 73.5t17.5 102.5t54.5 81q-31 -16 -130 -95z" />
    <glyph glyph-name="d.ss01" unicode="&#xe06a;" horiz-adv-x="321" 
d="M-115 207q97 77 128 94q-23 -21 -35.5 -49.5t-8 -58.5t30.5 -49q12 -9 26 -9t25 5t25.5 18.5t23.5 23.5t23 27q1 -13 4.5 -29t9 -36.5t14.5 -36t20.5 -26t27.5 -9t34 17.5q29 26 59 78.5t47 92t15 39.5h-10l-6 -16l-18 -40t-25 -51.5t-32.5 -53.5t-36.5 -42
q-46 -43 -59 43q-9 59 -1 117q49 36 93 95.5t73 125.5q30 66 36 118q6 40 -10 70t-57 15q-66 -24 -115 -137t-61 -241q-14 20 -41 25q-23 3 -48 -11q-12 -2 -27 -9.5t-41.5 -27l-38 -28.5l-49.5 -39l-27.5 -24t-38.5 -32l-43 -33t-47 -31.5t-44.5 -21.5t-42.5 -8t-34 13
q-10 8 -8 21q2 14 10 14q-13 -15 0 -23q11 -7 16 4q2 4 2 10q-2 17 -18 17q-10 0 -15 -9q-13 -26 9 -42q17 -12 38 -13t44.5 8t45.5 21t47 31t42.5 33.5l39 33zM302 659q32 29 47.5 2.5t9.5 -64.5q-6 -53 -35 -116q-65 -142 -156 -212q18 115 58.5 234t75.5 156zM87 313
q12 1 22.5 -8.5t14.5 -24.5q-3 -28 -1 -59q-51 -57 -71 -70q-27 -16 -45 1q-13 19 0 54t39 70t41 37z" />
    <glyph glyph-name="e.ss01" unicode="&#xe06b;" horiz-adv-x="201" 
d="M-135 197l-29.5 -25.5l-39 -33t-42.5 -33.5t-47 -31t-45.5 -21t-44.5 -8t-38 13q-22 16 -9 42q5 9 15 9q16 0 18 -17q1 -15 -11 -15.5t-13 10.5q0 7 6 14q-8 0 -10 -14q-2 -13 8 -21q14 -12 34 -13t42.5 8t44.5 21.5t47 31.5l43 33t38.5 32l27.5 24q118 96 154 104
q26 43 68 53q18 4 32.5 -3.5t9.5 -28.5q-4 -24 -28 -40.5t-44 -0.5q-18 -46 -16.5 -105.5t27.5 -68.5q23 -7 47.5 11t46.5 56.5t33.5 62t25.5 57.5h7q-32 -86 -75 -145.5t-85 -53.5q-39 6 -59 39.5t-17.5 76.5t21.5 80q-34 -12 -143 -100zM92 348q-20 -11 -35 -53
q16 -14 38 0t24 34q1 13 -8 18.5t-19 0.5z" />
    <glyph glyph-name="f.ss01" unicode="&#xe06c;" horiz-adv-x="191" 
d="M-146 224l-29.5 -25.5l-39 -33t-42.5 -33.5t-47 -31t-45.5 -21t-44.5 -8t-38 13q-22 16 -9 42q5 9 15 9q16 0 18 -17q1 -15 -11 -15.5t-13 10.5q0 7 6 14q-8 0 -10 -14q-2 -13 8 -21q14 -12 34 -13t42.5 8t44.5 21.5t47 31.5l43 33t38.5 32l27.5 24q124 100 158 104
q15 128 67.5 230t121.5 121q38 11 58.5 -9t16.5 -58q-5 -37 -24 -78q-27 -60 -77 -115t-110 -84q-17 -88 -18 -145q137 39 165 104h9q-26 -71 -174 -113v-2q41 -18 84 -79.5t22 -97.5q-26 -37 -77 25q-38 45 -51 90q-25 85 -14 203q-32 -4 -152 -102zM197 666
q-39 -40 -76 -127t-59 -188q57 29 103.5 82t73.5 111q20 41 23 75q4 33 -18.5 51.5t-46.5 -4.5zM42 176q2 -50 39 -121q35 -66 55 -49q3 3 5 7q17 34 -22.5 90.5t-76.5 72.5z" />
    </font>
</defs>
</svg>
